<?xml version="1.0" standalone="no"?>
<!DOCTYPE svg PUBLIC "-//W3C//DTD SVG 1.1//EN" "http://www.w3.org/Graphics/SVG/1.1/DTD/svg11.dtd" >
<svg xmlns="http://www.w3.org/2000/svg">
<metadata></metadata>
<defs>
<font id="locatorblack" horiz-adv-x="1374" >
<font-face units-per-em="2048" ascent="1638" descent="-410" />
<missing-glyph horiz-adv-x="471" />
<glyph horiz-adv-x="2048" />
<glyph horiz-adv-x="2048" />
<glyph unicode="&#xd;" horiz-adv-x="2048" />
<glyph unicode=" "  horiz-adv-x="471" />
<glyph unicode="&#x09;" horiz-adv-x="471" />
<glyph unicode="&#xa0;" horiz-adv-x="471" />
<glyph unicode="!" horiz-adv-x="714" d="M176 0v352h363v-352h-363zM182 1057v307h350v-307l-94 -561h-159z" />
<glyph unicode="&#x22;" horiz-adv-x="985" d="M156 741v623h231v-623h-231zM598 741v623h231v-623h-231z" />
<glyph unicode="#" horiz-adv-x="1519" d="M74 362l45 201h264l53 238h-264l47 196h264l84 367h215l-84 -367h279l86 367h215l-86 -367h266l-47 -196h-264l-53 -238h264l-47 -201h-264l-84 -362h-215l83 362h-280l-84 -362h-215l84 362h-262zM598 563h281l53 238h-281z" />
<glyph unicode="$" horiz-adv-x="1292" d="M98 109l70 264q245 -86 473 -86q122 0 172.5 24.5t50.5 89.5q0 42 -36.5 63.5t-177.5 72.5q-42 15 -66 24q-226 81 -328 180.5t-102 257.5q0 168 102 256.5t317 110.5v199h226v-195q197 -9 377 -65l-56 -275q-201 43 -411 43q-88 0 -132 -8.5t-58.5 -24.5t-14.5 -49 q0 -44 45 -70t228 -95q32 -12 50 -19q90 -34 147.5 -61.5t107 -61.5t75 -72.5t39.5 -89.5t14 -119q0 -163 -125 -274t-352 -131v-199h-225v201q-191 20 -410 109z" />
<glyph unicode="%" horiz-adv-x="1826" d="M74 1014q0 162 93 266t247 104t246 -103.5t92 -266.5t-92 -269t-246 -106t-247 106t-93 269zM297 1014q0 -76 28 -130.5t89 -54.5q60 0 87 54t27 131t-26 127.5t-88 50.5t-89.5 -51t-27.5 -127zM401 0l764 1364h234l-762 -1364h-236zM1047 352q0 163 92.5 267t246.5 104 t246 -104t92 -267t-92 -270t-246 -107t-246.5 107t-92.5 270zM1270 352q0 -76 27.5 -130t88.5 -54q41 0 68 28.5t37 68t10 87.5q0 77 -26.5 127.5t-88.5 50.5t-89 -51t-27 -127z" />
<glyph unicode="&#x26;" horiz-adv-x="1515" d="M94 422q0 123 68.5 212.5t197.5 141.5q-63 90 -92.5 153.5t-29.5 137.5q0 150 100.5 233.5t298.5 83.5q172 0 275.5 -83.5t103.5 -206.5q0 -103 -67.5 -200t-198.5 -165l233 -235q69 123 111 313l247 -64q-25 -125 -71 -246.5t-99 -201.5q56 -57 126.5 -131t112.5 -119 l42 -45h-391l-82 90q-166 -113 -371 -113q-230 0 -372 129t-142 316zM432 426q0 -77 47.5 -123.5t138.5 -46.5q100 0 177 39q-242 262 -277 299q-86 -53 -86 -168zM532 1059q0 -98 97 -180q62 37 94.5 88.5t32.5 101.5q0 43 -29 70.5t-84 27.5q-111 0 -111 -108z" />
<glyph unicode="'" horiz-adv-x="542" d="M156 739v625h231v-625h-231z" />
<glyph unicode="(" horiz-adv-x="755" d="M156 623q0 266 78 506t227 432l221 -109q-100 -223 -143 -410t-43 -419t43 -419.5t143 -410.5l-207 -108q-159 189 -239 428.5t-80 509.5z" />
<glyph unicode=")" horiz-adv-x="755" d="M74 -207q100 223 143 410.5t43 419.5t-43 419t-143 410l221 109q149 -192 227 -432t78 -506q0 -270 -80 -509.5t-239 -428.5z" />
<glyph unicode="*" horiz-adv-x="989" d="M84 842l240 112l-240 111l111 192l215 -155l-27 262h223l-26 -262l213 155l112 -192l-239 -111l239 -112l-112 -191l-213 154l26 -262h-223l27 262l-215 -154z" />
<glyph unicode="+" horiz-adv-x="1187" d="M106 369v237h367v371h244v-371h364v-237h-364v-369h-244v369h-367z" />
<glyph unicode="," horiz-adv-x="636" d="M127 0v352h362v-352l-190 -373h-154l154 373h-172z" />
<glyph unicode="-" horiz-adv-x="794" d="M106 446v271h582v-271h-582z" />
<glyph unicode="." horiz-adv-x="655" d="M147 0v352h361v-352h-361z" />
<glyph unicode="/" horiz-adv-x="1067" d="M94 -240l592 1624h287l-592 -1624h-287z" />
<glyph unicode="0" horiz-adv-x="1363" d="M102 672q0 111 23 213t71 189.5t116 152t163 101t207 36.5t207 -36.5t163 -101t116 -152t71 -189.5t23 -213t-23 -213t-71 -190t-116 -153t-163 -102t-207 -37t-207 37t-163 102t-116 153t-71 190t-23 213zM440 672q0 -64 6.5 -119t23.5 -108t43.5 -90.5t69.5 -60 t99 -22.5q69 0 119 33.5t76 92.5t37.5 126t11.5 148t-11.5 147.5t-37.5 125t-76 91.5t-119 33q-242 0 -242 -397z" />
<glyph unicode="1" horiz-adv-x="972" d="M45 1266l387 77h336v-1343h-336v1057l-340 -60z" />
<glyph unicode="2" horiz-adv-x="1320" d="M127 0v74q0 82 6.5 141t37 114t47.5 84.5t86 81t100.5 71.5t139.5 86q60 37 93 57q61 38 94.5 61t61.5 49.5t38.5 51t10.5 55.5q0 77 -66 111t-198 34q-175 0 -381 -51l-56 272q258 72 473 72q272 0 419 -112t147 -310q0 -72 -21.5 -131.5t-69.5 -114t-104.5 -98.5 t-146.5 -104q-44 -29 -118.5 -74.5t-122.5 -76.5t-67 -50h654v-293h-1057z" />
<glyph unicode="3" horiz-adv-x="1210" d="M86 49l57 252q167 -45 338 -45q138 0 213.5 40t75.5 114q0 65 -54.5 101t-191.5 36h-266v268h248q211 0 211 146q0 131 -271 131q-121 0 -288 -35l-60 248q193 59 385 59q162 0 287.5 -37.5t203 -120t77.5 -202.5q0 -89 -45 -171t-136 -135q115 -37 179.5 -122t64.5 -187 q0 -184 -170 -298t-461 -114q-89 0 -196 18.5t-201 53.5z" />
<glyph unicode="4" horiz-adv-x="1325" d="M66 276v291l618 776h367v-796h188v-271h-188v-276h-324v276h-661zM369 547h358v450z" />
<glyph unicode="5" horiz-adv-x="1320" d="M117 76l78 268q239 -78 423 -78q127 0 193 42.5t66 117.5q0 69 -58.5 108t-167.5 39q-122 0 -196 -32l-275 147l66 655h876v-290h-581l-19 -226q103 27 215 27q223 0 350 -120.5t127 -307.5q0 -91 -37 -171t-108 -142.5t-187.5 -99t-263.5 -36.5q-242 0 -501 99z" />
<glyph unicode="6" horiz-adv-x="1294" d="M96 584q0 357 194 568.5t511 211.5q182 0 332 -39l-50 -272q-123 24 -243 24q-183 0 -273.5 -84.5t-111.5 -253.5q114 97 286 97q196 0 321.5 -106.5t125.5 -295.5q0 -192 -146.5 -324.5t-371.5 -132.5q-189 0 -320 79t-192.5 213.5t-61.5 314.5zM455 412 q0 -77 60.5 -115.5t135.5 -38.5q95 0 147 47.5t52 110.5q0 71 -55 110t-144 39q-93 0 -144.5 -42.5t-51.5 -110.5z" />
<glyph unicode="7" horiz-adv-x="1110" d="M66 1051v292h999v-292l-504 -1051h-340l500 1051h-655z" />
<glyph unicode="8" horiz-adv-x="1263" d="M86 406q0 100 56.5 186t162.5 141q-143 113 -143 271q0 170 128.5 265t342.5 95q213 0 341 -95t128 -265q0 -157 -144 -271q106 -55 163 -141t57 -186q0 -186 -148.5 -307.5t-396.5 -121.5t-397.5 121.5t-149.5 307.5zM420 408q0 -68 60 -113t153 -45t152 45t59 113 q0 63 -52 110t-159 47q-108 0 -160.5 -47.5t-52.5 -109.5zM473 961q0 -70 48 -113t112 -43t111 43t47 113q0 60 -38.5 103.5t-119.5 43.5t-120.5 -43.5t-39.5 -103.5z" />
<glyph unicode="9" horiz-adv-x="1286" d="M106 924q0 190 146.5 315t374.5 125q142 0 252.5 -45t180 -126.5t105 -192t35.5 -244.5q0 -357 -193.5 -568t-510.5 -211q-193 0 -332 39l49 271q129 -25 244 -25q183 0 273.5 84.5t111.5 253.5q-110 -94 -287 -94q-194 0 -321.5 113.5t-127.5 304.5zM446 924 q0 -72 55 -111t144 -39q93 0 145 43t52 111q0 77 -61 115t-136 38q-95 0 -147 -47t-52 -110z" />
<glyph unicode=":" horiz-adv-x="655" d="M147 0v352h361v-352h-361zM147 627v350h361v-350h-361z" />
<glyph unicode=";" horiz-adv-x="636" d="M127 0v352h362v-352l-192 -373h-152l154 373h-172zM127 627v350h362v-350h-362z" />
<glyph unicode="&#x3c;" horiz-adv-x="1138" d="M45 408v170l999 430v-240l-669 -276l669 -277v-240z" />
<glyph unicode="=" horiz-adv-x="1165" d="M94 113v245h977v-245h-977zM94 600v248h977v-248h-977z" />
<glyph unicode="&#x3e;" horiz-adv-x="1140" d="M94 -23v240l672 275l-672 276v240l1002 -430v-170z" />
<glyph unicode="?" horiz-adv-x="1226" d="M86 1300q106 36 243 60t238 24q271 0 418.5 -111t147.5 -315q0 -304 -482 -518l-129 217l60.5 33t54 31.5t53.5 36t41 37.5t35.5 44.5t19.5 48.5t9 58q0 154 -269 154q-168 0 -370 -56zM430 0v352h361v-352h-361z" />
<glyph unicode="@" horiz-adv-x="1587" d="M127 682q0 204 83.5 364.5t234 249t341.5 88.5q209 0 327 -112t118 -289v-631h-205v84q-69 -96 -197 -96q-87 0 -153.5 50t-99.5 128t-33 170q0 86 33 164t100 130t153 52q140 0 215 -100v41q0 108 -62.5 168.5t-195.5 60.5q-222 0 -343 -140t-121 -382q0 -111 39.5 -207 t113 -167.5t186 -112.5t250.5 -41q308 0 576 100l47 -154q-267 -123 -623 -123q-217 0 -396 90t-283.5 252t-104.5 363zM764 688q0 -74 35 -126t94 -52t94 48t35 130q0 81 -36.5 129.5t-92.5 48.5q-59 0 -94 -52t-35 -126z" />
<glyph unicode="A" d="M16 0l506 1364h332l504 -1364h-346l-92 256h-463l-95 -256h-346zM539 520h297l-148 498z" />
<glyph unicode="B" horiz-adv-x="1411" d="M176 0v1364h709q190 0 301.5 -92t111.5 -252q0 -55 -17.5 -108.5t-68 -109.5t-129.5 -85q133 -39 198 -128.5t65 -205.5q0 -75 -26.5 -143.5t-75 -122t-123.5 -85.5t-165 -32h-780zM526 279h308q82 0 121.5 37.5t39.5 101.5t-41.5 101.5t-119.5 37.5h-308v-278zM526 817 h267q80 0 117.5 39.5t37.5 104.5q0 129 -157 129h-265v-273z" />
<glyph unicode="C" d="M74 682q0 145 55 273t153.5 223t245.5 150.5t322 55.5q214 0 391 -57l-55 -289q-165 31 -295 31q-236 0 -352.5 -106t-116.5 -281q0 -84 27.5 -154t82.5 -124t147 -84.5t212 -30.5q136 0 295 35l55 -291q-171 -56 -391 -56q-143 0 -267.5 36t-216.5 101t-158.5 152.5 t-100 193.5t-33.5 222z" />
<glyph unicode="D" horiz-adv-x="1445" d="M176 0v1364h334q271 0 472 -87t306 -241t105 -354t-105 -354t-306 -241t-472 -87h-334zM526 311h47q95 0 175.5 20t147 61.5t104.5 115.5t38 174t-38 174t-104.5 115.5t-147 61.5t-175.5 20h-47v-742z" />
<glyph unicode="E" horiz-adv-x="1312" d="M176 0v1364h1022v-303h-672v-207h635v-303h-635v-248h672v-303h-1022z" />
<glyph unicode="F" horiz-adv-x="1325" d="M176 0v1364h1084v-303h-734v-207h656v-303h-656v-551h-350z" />
<glyph unicode="G" horiz-adv-x="1437" d="M74 682q0 154 53 282.5t152 222t249.5 145.5t337.5 52q189 0 389 -45l-43 -288q-177 30 -319 30q-240 0 -354.5 -104.5t-114.5 -294.5q0 -184 111 -290.5t307 -106.5q94 0 151 8v403h330v-665q-202 -54 -442 -54q-188 0 -341.5 52.5t-255 146t-156 223t-54.5 283.5z" />
<glyph unicode="H" horiz-adv-x="1605" d="M176 0v1364h350v-524h553v524h351v-1364h-351v526h-553v-526h-350z" />
<glyph unicode="I" horiz-adv-x="718" d="M184 0v1364h351v-1364h-351z" />
<glyph unicode="J" horiz-adv-x="989" d="M94 -12v272h252q73 0 105 48.5t32 142.5v632h-366v281h717v-920q0 -223 -113.5 -339.5t-362.5 -116.5h-264z" />
<glyph unicode="K" horiz-adv-x="1488" d="M176 0v1364h350v-516l461 516h465l-645 -662l666 -702h-465l-482 541v-541h-350z" />
<glyph unicode="L" horiz-adv-x="1208" d="M176 0v1364h348v-1061h647v-303h-995z" />
<glyph unicode="M" horiz-adv-x="1822" d="M176 0v1364h332l403 -655l404 655h332v-1364h-336v756l-307 -486h-187l-305 486v-756h-336z" />
<glyph unicode="N" horiz-adv-x="1644" d="M176 0v1364h338l619 -825v825h335v-1364h-335l-619 827v-827h-338z" />
<glyph unicode="O" horiz-adv-x="1546" d="M74 682q0 194 92.5 355t253.5 254t354 93t354 -93t253 -254t92 -355q0 -145 -54.5 -275.5t-147.5 -224.5t-222.5 -149.5t-274.5 -55.5t-275 55.5t-223 149.5t-147.5 224.5t-54.5 275.5zM424 682q0 -166 93 -279.5t257 -113.5t256 113.5t92 279.5q0 165 -93 278t-255 113 t-256 -113t-94 -278z" />
<glyph unicode="P" horiz-adv-x="1421" d="M176 0v1364h742q203 0 334.5 -133t131.5 -326q0 -94 -34.5 -180t-95 -149t-148.5 -100.5t-188 -37.5h-392v-438h-350zM526 721h342q69 0 117.5 51t48.5 133q0 83 -46.5 130.5t-119.5 47.5h-342v-362z" />
<glyph unicode="Q" horiz-adv-x="1544" d="M74 680q0 194 92 355.5t252.5 255t353.5 93.5t353.5 -93.5t252.5 -255t92 -355.5q0 -249 -149 -438.5t-383 -245.5v-350h-332v350q-234 56 -383 245.5t-149 438.5zM422 680q0 -79 23 -149.5t66 -124.5t110.5 -85.5t150.5 -31.5t150.5 31.5t110.5 85.5t66 124.5t23 149.5 q0 106 -39.5 194.5t-120.5 143.5t-190 55t-190 -55t-120.5 -143.5t-39.5 -194.5z" />
<glyph unicode="R" horiz-adv-x="1581" d="M176 0v1364h764q209 0 333 -125.5t124 -316.5q0 -129 -60.5 -237.5t-169.5 -166.5l381 -518h-442l-336 465h-244v-465h-350zM526 737h355q67 0 116.5 51t49.5 125t-47.5 121t-118.5 47h-355v-344z" />
<glyph unicode="S" horiz-adv-x="1355" d="M98 94l66 271q292 -89 510 -89q127 0 187.5 25t60.5 92q0 36 -43.5 60t-177.5 74q-58 21 -91 34q-70 26 -116 45.5t-98 45.5t-85 49.5t-65 55.5t-49.5 67t-28 79.5t-10.5 97.5q0 198 137.5 290.5t441.5 92.5q125 0 262 -17.5t238 -49.5l-47 -283q-86 22 -214.5 36.5 t-234.5 14.5q-99 0 -150 -9.5t-67 -27t-16 -51.5q0 -40 44.5 -65.5t192.5 -80.5q21 -8 33.5 -13t33 -12.5t38.5 -14.5q182 -69 232 -94q115 -59 156 -145q32 -68 32 -171q0 -198 -157 -311t-439 -113q-284 0 -576 117z" />
<glyph unicode="T" horiz-adv-x="1267" d="M16 1053v311h1235v-311h-442v-1053h-350v1053h-443z" />
<glyph unicode="U" horiz-adv-x="1576" d="M156 590v774h350v-776q0 -140 73.5 -219.5t208.5 -79.5q136 0 210.5 78.5t74.5 220.5v776h348v-774q0 -165 -78.5 -304.5t-225 -224t-329.5 -84.5q-138 0 -257.5 49.5t-200.5 133t-127.5 195.5t-46.5 235z" />
<glyph unicode="V" horiz-adv-x="1320" d="M12 1364h355l295 -948l292 948h355l-461 -1364h-373z" />
<glyph unicode="W" horiz-adv-x="1751" d="M25 1364h348l151 -721l236 721h233l236 -721l151 721h346l-315 -1364h-278l-259 780l-253 -780h-281z" />
<glyph unicode="X" horiz-adv-x="1292" d="M8 0l445 688l-435 676h381l246 -401l246 401h385l-438 -676l446 -688h-385l-254 418l-254 -418h-383z" />
<glyph unicode="Y" horiz-adv-x="1222" d="M-6 1364h350l268 -522l267 522h350l-441 -832v-532h-352v532z" />
<glyph unicode="Z" horiz-adv-x="1302" d="M94 0v319l680 742h-665v303h1087v-313l-676 -748h709v-303h-1135z" />
<glyph unicode="[" horiz-adv-x="770" d="M176 -258v1876h582v-264h-238v-1344h238v-268h-582z" />
<glyph unicode="\" horiz-adv-x="1067" d="M94 1384h287l592 -1624h-287z" />
<glyph unicode="]" horiz-adv-x="770" d="M12 10h238v1344h-238v264h582v-1876h-582v268z" />
<glyph unicode="^" horiz-adv-x="989" d="M45 670l340 694h221l338 -694h-256l-192 452l-195 -452h-256z" />
<glyph unicode="_" horiz-adv-x="970" d="M0 -23h971v-100h-971v100z" />
<glyph unicode="`" horiz-adv-x="716" d="M82 1407h336l186 -279h-209z" />
<glyph unicode="a" horiz-adv-x="1097" d="M66 283q0 145 84.5 221t238.5 76h275v63q0 71 -41.5 96t-163.5 25q-164 0 -303 -21l-35 230q191 43 373 43q505 0 505 -389v-627h-319v102q-103 -118 -281 -118q-146 0 -239.5 88t-93.5 211zM403 291q0 -86 115 -86q65 0 105.5 45t40.5 112v23h-144q-54 0 -85.5 -24 t-31.5 -70z" />
<glyph unicode="b" horiz-adv-x="1249" d="M135 0v1364h336v-485q52 63 128.5 100t158.5 37q98 0 180 -41t136 -111.5t84 -164.5t30 -199t-30 -199t-84 -164.5t-136 -111.5t-180 -41q-82 0 -158.5 36.5t-128.5 98.5v-119h-336zM471 500q0 -119 55.5 -189.5t137.5 -70.5q88 0 137 74t49 186t-49 186t-137 74 q-86 0 -139.5 -69.5t-53.5 -190.5z" />
<glyph unicode="c" horiz-adv-x="1001" d="M61 500q0 227 159.5 371.5t416.5 144.5q66 0 141.5 -13t128.5 -36l-61 -234q-97 23 -180 23q-131 0 -200 -72t-69 -184t69 -184t200 -72q91 0 180 26l59 -235q-119 -51 -268 -51q-255 0 -415.5 144.5t-160.5 371.5z" />
<glyph unicode="d" horiz-adv-x="1249" d="M61 500q0 142 51 258.5t150.5 187t229.5 70.5q82 0 158 -37t128 -100v485h336v-1364h-336v119q-52 -62 -128 -98.5t-158 -36.5q-130 0 -229.5 70.5t-150.5 187t-51 258.5zM399 500q0 -111 49 -185.5t138 -74.5q82 0 137 70.5t55 189.5q0 121 -53 190.5t-139 69.5 q-89 0 -138 -74.5t-49 -185.5z" />
<glyph unicode="e" horiz-adv-x="1110" d="M61 500q0 137 59.5 254t176 189.5t266.5 72.5q218 0 343.5 -140t125.5 -387v-75h-645q10 -91 80 -137t190 -46q123 0 275 33l57 -223q-155 -57 -338 -57q-283 0 -436.5 138t-153.5 378zM389 606h328q-20 166 -158 166q-66 0 -111.5 -41.5t-58.5 -124.5z" />
<glyph unicode="f" horiz-adv-x="757" d="M57 756v217h125v47q0 185 87 290t272 105q114 0 237 -29l-37 -233q-56 10 -110 10q-113 0 -113 -127v-63h168v-217h-168v-756h-336v756h-125z" />
<glyph unicode="g" horiz-adv-x="1239" d="M61 520q0 141 51 253t150 177.5t230 65.5q82 0 158 -37t128 -100v118h336v-860q0 -487 -567 -487q-188 0 -363 41l35 221q140 -31 285 -31q153 0 213.5 50.5t60.5 146.5v84q-52 -62 -128 -98.5t-158 -36.5q-197 0 -314 139t-117 354zM397 520q0 -108 49.5 -172.5 t139.5 -64.5q85 0 138.5 60t53.5 177q0 119 -52 179.5t-140 60.5q-90 0 -139.5 -65.5t-49.5 -174.5z" />
<glyph unicode="h" horiz-adv-x="1239" d="M135 0v1364h324v-512q58 72 150.5 118t185.5 46q159 0 239 -102t80 -287v-627h-336v571q0 63 -33 106.5t-100 43.5q-77 0 -125.5 -58t-48.5 -135v-528h-336z" />
<glyph unicode="i" horiz-adv-x="608" d="M135 0v997h338v-997h-338zM135 1163v264h338v-264h-338z" />
<glyph unicode="j" horiz-adv-x="600" d="M-41 -94q40 -4 82 -4q60 0 78 28t18 113v954h338v-991q0 -181 -94.5 -268.5t-271.5 -87.5q-107 0 -146 8zM137 1163v264h338v-264h-338z" />
<glyph unicode="k" horiz-adv-x="1198" d="M135 0v1364h336v-731l322 364h387l-439 -493l447 -504h-383l-334 377v-377h-336z" />
<glyph unicode="l" horiz-adv-x="724" d="M125 338v1026h336v-975q0 -85 18.5 -114t79.5 -29q45 0 92 6v-256q-65 -14 -162 -14q-163 0 -263.5 89t-100.5 267z" />
<glyph unicode="m" horiz-adv-x="1857" d="M135 0v997h324v-145q59 73 145 118.5t178 45.5q100 0 165.5 -37t109.5 -119q61 69 158 112.5t198 43.5q159 0 239.5 -102.5t80.5 -286.5v-627h-336v571q0 64 -30.5 107t-96.5 43q-76 0 -122 -57.5t-46 -135.5v-528h-336v571q0 64 -31.5 107t-97.5 43q-76 0 -121 -57.5 t-45 -135.5v-528h-336z" />
<glyph unicode="n" horiz-adv-x="1241" d="M135 0v997h326v-145q58 72 150.5 118t185.5 46q159 0 239 -102t80 -287v-627h-336v571q0 63 -33 106.5t-100 43.5q-77 0 -125.5 -58t-48.5 -135v-528h-338z" />
<glyph unicode="o" horiz-adv-x="1171" d="M61 500q0 139 62.5 255.5t184 188.5t278.5 72t278 -72t183.5 -188.5t62.5 -255.5t-62.5 -255.5t-183.5 -188.5t-278 -72t-278.5 72t-184 188.5t-62.5 255.5zM397 500q0 -118 49.5 -189t139.5 -71t138 70.5t48 189.5t-48 189.5t-138 70.5t-139.5 -71t-49.5 -189z" />
<glyph unicode="p" horiz-adv-x="1249" d="M135 -332v1329h336v-118q52 63 128.5 100t158.5 37q98 0 180 -41t136 -111.5t84 -164.5t30 -199t-30 -199t-84 -164.5t-136 -111.5t-180 -41q-82 0 -158.5 37t-128.5 100v-453h-336zM471 500q0 -121 53.5 -190.5t139.5 -69.5q89 0 138.5 74.5t49.5 185.5t-49.5 185.5 t-138.5 74.5q-82 0 -137.5 -70.5t-55.5 -189.5z" />
<glyph unicode="q" horiz-adv-x="1249" d="M61 500q0 142 51 258.5t150.5 187t229.5 70.5q82 0 158 -37t128 -100v118h336v-1329h-336v453q-52 -63 -128 -100t-158 -37q-130 0 -229.5 70.5t-150.5 187t-51 258.5zM397 500q0 -111 50 -185.5t139 -74.5q86 0 139 69.5t53 190.5q0 119 -55 189.5t-137 70.5 q-89 0 -139 -74.5t-50 -185.5z" />
<glyph unicode="r" horiz-adv-x="825" d="M135 0v997h330v-157q36 75 99.5 125.5t146.5 50.5q19 0 73 -6v-287q-23 4 -63 4q-99 0 -173.5 -88t-74.5 -209v-430h-338z" />
<glyph unicode="s" horiz-adv-x="1026" d="M74 74l61 229q241 -72 379 -72q52 0 80 8t34.5 18t6.5 26q0 22 -19.5 35t-75.5 36q-13 5 -20 8q-210 86 -272 123q-100 59 -128 137q-14 41 -14 95q0 153 108.5 226t334.5 73q82 0 194 -15.5t185 -42.5l-51 -233q-176 43 -324 43q-74 0 -96.5 -9t-22.5 -30q0 -8 1.5 -14 t6 -12t9.5 -10.5t16 -10.5t20.5 -10.5t28 -12t34 -13.5t43 -16.5t50.5 -19.5q66 -25 104 -41.5t79.5 -38.5t63 -42t40.5 -48t26 -61.5t7 -77.5q0 -143 -125 -230t-324 -87q-197 0 -440 90z" />
<glyph unicode="t" horiz-adv-x="757" d="M37 788v209h127v279h336v-279h164v-209h-164v-452q0 -58 28 -78t78 -20q33 0 49 4l29 -246q-52 -12 -147 -12q-166 0 -269.5 79.5t-103.5 239.5v485h-127z" />
<glyph unicode="u" horiz-adv-x="1236" d="M121 371v626h336v-571q0 -63 33 -106.5t100 -43.5q77 0 125.5 58t48.5 135v528h338v-997h-324v145q-58 -71 -151 -116t-187 -45q-159 0 -239 101.5t-80 285.5z" />
<glyph unicode="v" horiz-adv-x="1079" d="M16 997h326l197 -653l198 653h326l-356 -997h-336z" />
<glyph unicode="w" horiz-adv-x="1495" d="M10 997h307l125 -635l158 635h293l154 -637l122 637h316l-262 -997h-330l-145 608l-154 -608h-328z" />
<glyph unicode="x" horiz-adv-x="1034" d="M25 0l321 510l-315 487h346l139 -245l143 245h345l-316 -487l322 -510h-342l-152 250l-145 -250h-346z" />
<glyph unicode="y" horiz-adv-x="1064" d="M4 997h326l202 -632l193 632h326l-476 -1331h-327l119 336z" />
<glyph unicode="z" horiz-adv-x="1126" d="M115 0v242l487 514h-444v241h854v-239l-502 -512h508v-246h-903z" />
<glyph unicode="{" horiz-adv-x="774" d="M45 549v229h35q68 0 94.5 39.5t26.5 138.5v412q0 49 11.5 91.5t37.5 79.5t74 58t114 21h330v-242h-139q-49 0 -66.5 -23t-17.5 -73v-281q0 -91 -34.5 -164t-111.5 -120.5t-188 -50.5q165 -6 249.5 -100.5t84.5 -235.5v-283q0 -49 17 -71.5t67 -22.5h139v-244h-330 q-66 0 -114 21t-74 58t-37.5 79.5t-11.5 91.5v416q0 99 -26 137.5t-95 38.5h-35z" />
<glyph unicode="|" horiz-adv-x="628" d="M197 -410v2048h235v-2048h-235z" />
<glyph unicode="}" horiz-adv-x="774" d="M6 -49h139q50 0 67 22.5t17 71.5v283q0 141 84.5 235.5t249.5 100.5q-111 3 -188 50.5t-111.5 120.5t-34.5 164v281q0 50 -17.5 73t-66.5 23h-139v242h330q66 0 114 -21t74 -58t37.5 -79.5t11.5 -91.5v-412q0 -99 26.5 -138.5t94.5 -39.5h35v-229h-35q-69 0 -95 -38.5 t-26 -137.5v-416q0 -49 -11.5 -91.5t-37.5 -79.5t-74 -58t-114 -21h-330v244z" />
<glyph unicode="~" horiz-adv-x="1105" d="M37 406q16 54 34.5 101t48.5 100t65 90t84.5 62t105.5 25q55 0 114.5 -22.5t101 -50t86.5 -50t75 -22.5q28 0 51 13.5t41 41.5t27 47t22 52l176 -72q-16 -53 -34.5 -100.5t-49 -100.5t-66 -90.5t-85 -62.5t-105.5 -25q-55 0 -114.5 22.5t-100.5 50t-85.5 50t-74.5 22.5 q-28 0 -51.5 -13.5t-41.5 -40.5t-27.5 -47.5t-22.5 -51.5z" />
<glyph unicode="&#xa1;" horiz-adv-x="714" d="M176 1014v350h363v-350h-363zM182 0v307l94 561h160l96 -561v-307h-350z" />
<glyph unicode="&#xa2;" horiz-adv-x="1001" d="M61 500q0 216 146 358.5t383 155.5v129h57v-127q162 -4 260 -49l-61 -234q-97 23 -178 23q-4 0 -11 -1t-10 -1v-510h21q89 0 178 26l61 -235q-112 -47 -260 -51v-129h-57v131q-237 13 -383 155.5t-146 358.5zM399 500q0 -94 48.5 -160.5t142.5 -87.5v496 q-94 -21 -142.5 -87.5t-48.5 -160.5z" />
<glyph unicode="&#xa3;" horiz-adv-x="1470" d="M127 0v276h139q92 148 82 302v4h-178v166h158q-47 146 -47 249q0 203 139 295t448 92q100 0 233 -18t234 -49l-47 -279q-191 45 -403 45q-133 0 -191.5 -23.5t-58.5 -80.5q0 -106 51 -231h399v-166h-376v-9q4 -63 -16 -143t-70 -154h639v-276h-1135z" />
<glyph unicode="&#xa4;" horiz-adv-x="1482" d="M37 494v135h178q-2 16 -2 51t2 51h-178v137h201q65 228 263.5 372t473.5 144q226 0 405 -55l-55 -291q-143 31 -295 31q-321 0 -426 -201h295v-137h-334q-4 -32 -4 -51t4 -51h334v-135h-295q105 -205 426 -205q135 0 295 39l55 -291q-183 -60 -405 -60 q-275 0 -473.5 144.5t-263.5 372.5h-201z" />
<glyph unicode="&#xa5;" horiz-adv-x="1226" d="M-6 1364h350l270 -524l269 524h350l-301 -565h168v-185h-266l-43 -82v-34h309v-187h-309v-311h-355v311h-313v187h313v34l-39 82h-274v185h172z" />
<glyph unicode="&#xa6;" horiz-adv-x="628" d="M197 -410v828h235v-828h-235zM197 811v827h235v-827h-235z" />
<glyph unicode="&#xa7;" horiz-adv-x="1212" d="M94 -248l58 228q248 -76 450 -76q112 0 167.5 24t55.5 80q0 11 -2.5 19.5t-9 16.5t-13.5 14t-21.5 13.5t-27 13t-35.5 14t-42.5 15.5t-52.5 18.5t-60 21.5q-86 32 -146 59.5t-114 63.5t-85.5 75.5t-50 92t-18.5 116.5q0 90 35 150t88 90q-61 43 -92 99t-31 142 q0 172 119 257t383 85q111 0 236 -16t205 -45l-39 -244q-80 23 -192 37t-206 14q-120 0 -166.5 -15.5t-46.5 -57.5q0 -11 2.5 -20.5t10.5 -18.5t16.5 -16t25.5 -15.5t32.5 -15.5t43 -17.5t51.5 -19t64 -23.5t74 -28q173 -66 231 -102q98 -62 119 -158q8 -34 8 -76 q0 -79 -34.5 -151t-106.5 -120q72 -39 106.5 -98.5t34.5 -161.5q0 -168 -142.5 -265t-369.5 -97q-253 0 -512 98zM442 578q0 -57 44.5 -89t175.5 -83q40 -15 55 -21q53 22 80.5 59.5t27.5 79.5q0 11 -2.5 20t-9 17t-14 14.5t-22.5 14t-29 13.5t-38 14.5t-45 16t-55.5 19.5 t-64.5 23q-40 15 -47 18q-26 -18 -41 -50.5t-15 -65.5z" />
<glyph unicode="&#xa8;" horiz-adv-x="860" d="M115 1143v256h243v-256h-243zM502 1143v256h243v-256h-243z" />
<glyph unicode="&#xa9;" horiz-adv-x="1466" d="M57 682q0 142 50 271t137.5 224t215 151t273.5 56t273.5 -56t215 -151t137.5 -224t50 -271q0 -143 -50 -272t-137.5 -224.5t-215 -152t-273.5 -56.5t-273.5 56.5t-215 152t-137.5 224.5t-50 272zM195 682q0 -110 37.5 -213t105 -184t170.5 -130t225 -49q98 0 184 31.5 t150 87t111 128t70.5 157t23.5 172.5q0 110 -38 212.5t-105.5 183t-171 129t-224.5 48.5t-224 -48.5t-170.5 -129t-105.5 -183t-38 -212.5zM395 682q0 150 108.5 252t276.5 102q109 0 209 -32l-31 -148q-88 23 -149 23q-120 0 -178 -54t-58 -143t58 -144t178 -55 q72 0 147 21l31 -144q-92 -36 -207 -36q-168 0 -276.5 104t-108.5 254z" />
<glyph unicode="&#xaa;" horiz-adv-x="815" d="M84 891q0 97 56.5 148t160.5 51h184v43q0 47 -27 63t-110 16q-110 0 -209 -12l-16 162q119 22 248 22q340 0 340 -260v-424h-211v70q-71 -80 -191 -80q-97 0 -161 59.5t-64 141.5zM309 897q0 -57 80 -57q43 0 69.5 30.5t26.5 75.5v10h-96q-80 0 -80 -59z" />
<glyph unicode="&#xab;" horiz-adv-x="1314" d="M53 498l467 499l139 -131l-344 -366l344 -369l-139 -131zM551 498l467 499l141 -131l-346 -366l346 -369l-139 -131z" />
<glyph unicode="&#xac;" horiz-adv-x="1148" d="M115 367v239h858v-606h-246v367h-612z" />
<glyph unicode="&#xad;" horiz-adv-x="794" d="M106 446v271h582v-271h-582z" />
<glyph unicode="&#xae;" horiz-adv-x="1468" d="M57 682q0 142 50.5 271t138.5 224t215.5 151t273.5 56t273.5 -56t215 -151t137.5 -224t50 -271q0 -143 -50 -272t-137.5 -224.5t-215 -152t-273.5 -56.5t-273.5 56.5t-215.5 152t-138.5 225t-50.5 271.5zM197 682q0 -110 38 -213t105.5 -184t170.5 -130t224 -49t223.5 49 t169.5 130t104.5 184t37.5 213t-37.5 212.5t-104.5 183t-169.5 129t-223.5 48.5t-224 -48.5t-170.5 -129t-105.5 -183t-38 -212.5zM444 334v690h392q97 0 164 -67t67 -162q0 -64 -33.5 -116.5t-89.5 -82.5l193 -262h-222l-170 235h-122v-235h-179zM623 707h174 q35 0 60.5 25.5t25.5 62.5q0 38 -25 63t-61 25h-174v-176z" />
<glyph unicode="&#xaf;" horiz-adv-x="811" d="M115 1206v137h581v-137h-581z" />
<glyph unicode="&#xb0;" horiz-adv-x="614" d="M86 1163q0 92 64.5 156.5t156.5 64.5t156.5 -64.5t64.5 -156.5t-64.5 -157.5t-156.5 -65.5t-156.5 65.5t-64.5 157.5zM170 1163q0 -57 41 -95t96 -38t95 38t40 95t-40 96t-95 39t-96 -39t-41 -96z" />
<glyph unicode="&#xb1;" horiz-adv-x="1189" d="M106 0v207h367v162h-367v237h367v371h244v-371h366v-237h-366v-162h366v-207h-977z" />
<glyph unicode="&#xb2;" horiz-adv-x="1363" d="M0 342v340h340v-340h-340zM0 1024v340h340v-340h-340zM340 0v342h342v-342h-342zM340 682v342h342v-342h340v-340h342v-342h-342v342h-340v340h-342zM682 1024v340h340v-340h-340zM1022 682v342h342v-342h-342z" />
<glyph unicode="&#xb3;" horiz-adv-x="1363" d="M0 342v340h340v-340h-340zM0 1024v340h340v-340h-340zM340 0v342h342v-342h-342zM340 682v342h342v-342h340v-340h342v-342h-342v342h-340v340h-342zM682 1024v340h340v-340h-340zM1022 682v342h342v-342h-342z" />
<glyph unicode="&#xb4;" horiz-adv-x="716" d="M113 1128l186 279h336l-313 -279h-209z" />
<glyph unicode="&#xb5;" horiz-adv-x="1236" d="M121 -334v1331h336v-571q0 -63 33 -106.5t100 -43.5q77 0 125.5 58t48.5 135v528h338v-997h-326v145q-58 -70 -148 -115t-184 -46v-318h-323z" />
<glyph unicode="&#xb6;" horiz-adv-x="976" d="M33 1034q0 137 96.5 233.5t232.5 96.5h439v-1364h-154v1272h-133v-1272h-152v705q-136 0 -232.5 96.5t-96.5 232.5z" />
<glyph unicode="&#xb7;" horiz-adv-x="655" d="M147 446v353h361v-353h-361z" />
<glyph unicode="&#xb8;" horiz-adv-x="792" d="M115 -563l39 129q71 -19 151 -19q79 0 118.5 27t39.5 68q0 71 -121 71q-16 0 -74.5 -2.5t-101.5 -3.5l65 293h179q-12 -43 -21 -72.5t-15.5 -47t-8.5 -25.5q23 2 53 2q121 0 190.5 -59t69.5 -163q0 -103 -99.5 -167t-250.5 -64q-115 0 -213 33z" />
<glyph unicode="&#xb9;" horiz-adv-x="1363" d="M0 342v340h340v-340h-340zM0 1024v340h340v-340h-340zM340 0v342h342v-342h-342zM340 682v342h342v-342h340v-340h342v-342h-342v342h-340v340h-342zM682 1024v340h340v-340h-340zM1022 682v342h342v-342h-342z" />
<glyph unicode="&#xba;" horiz-adv-x="845" d="M63 1036q0 141 103 244.5t256 103.5q154 0 257 -103.5t103 -244.5q0 -140 -103.5 -243t-256.5 -103t-256 103t-103 243zM289 1036q0 -80 35.5 -127t97.5 -47t97.5 47t35.5 127t-35.5 128t-97.5 48t-97.5 -48t-35.5 -128z" />
<glyph unicode="&#xbb;" horiz-adv-x="1312" d="M156 131l344 369l-344 366l139 131l467 -499l-469 -498zM653 131l344 369l-344 366l140 131l467 -499l-467 -498z" />
<glyph unicode="&#xbc;" horiz-adv-x="1363" d="M0 342v340h340v-340h-340zM0 1024v340h340v-340h-340zM340 0v342h342v-342h-342zM340 682v342h342v-342h340v-340h342v-342h-342v342h-340v340h-342zM682 1024v340h340v-340h-340zM1022 682v342h342v-342h-342z" />
<glyph unicode="&#xbd;" horiz-adv-x="1363" d="M0 342v340h340v-340h-340zM0 1024v340h340v-340h-340zM340 0v342h342v-342h-342zM340 682v342h342v-342h340v-340h342v-342h-342v342h-340v340h-342zM682 1024v340h340v-340h-340zM1022 682v342h342v-342h-342z" />
<glyph unicode="&#xbe;" horiz-adv-x="1363" d="M0 342v340h340v-340h-340zM0 1024v340h340v-340h-340zM340 0v342h342v-342h-342zM340 682v342h342v-342h340v-340h342v-342h-342v342h-340v340h-342zM682 1024v340h340v-340h-340zM1022 682v342h342v-342h-342z" />
<glyph unicode="&#xbf;" horiz-adv-x="1226" d="M94 403q0 306 481 519l130 -217l-60.5 -33t-54 -31.5t-53.5 -36t-41 -37.5t-35.5 -44.5t-19.5 -48.5t-9 -58q0 -154 268 -154q172 0 371 55l70 -256q-106 -36 -243.5 -60t-238.5 -24q-271 0 -418 111t-147 315zM436 1012v352h361v-352h-361z" />
<glyph unicode="&#xc0;" d="M16 0l506 1364h332l504 -1364h-346l-92 256h-463l-95 -256h-346zM260 1749h336l186 -279h-209zM539 520h297l-148 498z" />
<glyph unicode="&#xc1;" d="M16 0l506 1364h332l504 -1364h-346l-92 256h-463l-95 -256h-346zM539 520h297l-148 498zM592 1470l186 279h336l-311 -279h-211z" />
<glyph unicode="&#xc2;" d="M16 0l506 1364h332l504 -1364h-346l-92 256h-463l-95 -256h-346zM334 1452l241 285h220l245 -285h-256l-96 123l-100 -123h-254zM539 520h297l-148 498z" />
<glyph unicode="&#xc3;" d="M16 0l506 1364h332l504 -1364h-346l-92 256h-463l-95 -256h-346zM348 1507q13 43 29 79.5t41 75t61.5 61t79.5 22.5q44 0 99 -23t101.5 -46t69.5 -23q55 0 89 96l108 -45q-75 -236 -211 -236q-44 0 -98.5 23t-101 45.5t-68.5 22.5q-55 0 -90 -97zM539 520h297l-148 498z " />
<glyph unicode="&#xc4;" d="M16 0l506 1364h332l504 -1364h-346l-92 256h-463l-95 -256h-346zM371 1470v256h243v-256h-243zM539 520h297l-148 498zM758 1470v256h246v-256h-246z" />
<glyph unicode="&#xc5;" d="M16 0l506 1364h332l504 -1364h-346l-92 256h-463l-95 -256h-346zM451 1665q0 98 69.5 168t167.5 70t167 -70t69 -168t-69 -166.5t-167 -68.5t-167.5 68.5t-69.5 166.5zM539 520h297l-148 498zM580 1665q0 -48 28.5 -83.5t79.5 -35.5t80 35.5t29 83.5q0 49 -28.5 85 t-80.5 36q-51 0 -79.5 -36.5t-28.5 -84.5z" />
<glyph unicode="&#xc6;" horiz-adv-x="1900" d="M16 0l506 1364h1264v-303h-774l47 -207h655v-303h-579l57 -248h594v-303h-887l-51 254h-389l-94 -254h-349zM541 520h252l-99 498z" />
<glyph unicode="&#xc7;" horiz-adv-x="1345" d="M74 682q0 145 55 273t153.5 223t245.5 150.5t322 55.5q214 0 391 -57l-55 -289q-165 31 -295 31q-236 0 -352.5 -106t-116.5 -281q0 -84 27.5 -154t82.5 -124t147 -84.5t212 -30.5q136 0 295 35l55 -291q-171 -56 -391 -56q-143 0 -267.5 36t-216.5 101t-158.5 152.5 t-100 193.5t-33.5 222zM578 -563l38 129q71 -19 152 -19q79 0 118.5 27t39.5 68q0 71 -121 71q-16 0 -74.5 -2.5t-101.5 -3.5l65 293h178q-12 -43 -21 -72.5t-15.5 -47t-8.5 -25.5q23 2 54 2q121 0 190.5 -59t69.5 -163q0 -103 -99.5 -167t-250.5 -64q-115 0 -213 33z" />
<glyph unicode="&#xc8;" horiz-adv-x="1312" d="M176 0v1364h1022v-303h-672v-207h635v-303h-635v-248h672v-303h-1022zM295 1749h336l186 -279h-209z" />
<glyph unicode="&#xc9;" horiz-adv-x="1312" d="M176 0v1364h1022v-303h-672v-207h635v-303h-635v-248h672v-303h-1022zM547 1470l186 279h336l-313 -279h-209z" />
<glyph unicode="&#xca;" horiz-adv-x="1312" d="M176 0v1364h1022v-303h-672v-207h635v-303h-635v-248h672v-303h-1022zM313 1452l242 285h219l246 -285h-256l-96 123l-101 -123h-254z" />
<glyph unicode="&#xcb;" horiz-adv-x="1312" d="M176 0v1364h1022v-303h-672v-207h635v-303h-635v-248h672v-303h-1022zM375 1470v256h243v-256h-243zM762 1470v256h246v-256h-246z" />
<glyph unicode="&#xcc;" horiz-adv-x="731" d="M-70 1749h336l187 -279h-211zM184 0v1364h351v-1364h-351z" />
<glyph unicode="&#xcd;" horiz-adv-x="731" d="M184 0v1364h351v-1364h-351zM260 1470l186 279h336l-311 -279h-211z" />
<glyph unicode="&#xce;" horiz-adv-x="731" d="M12 1452l242 285h219l246 -285h-256l-96 123l-101 -123h-254zM184 0v1364h351v-1364h-351z" />
<glyph unicode="&#xcf;" horiz-adv-x="731" d="M49 1470v256h244v-256h-244zM182 0v1364h350v-1364h-350zM436 1470v256h244v-256h-244z" />
<glyph unicode="&#xd0;" horiz-adv-x="1521" d="M74 571v222h178v571h334q203 0 369.5 -50.5t278.5 -140.5t173 -215.5t61 -275.5t-61 -275.5t-173 -215.5t-278.5 -140.5t-369.5 -50.5h-334v571h-178zM602 311h47q95 0 175.5 20t147 61.5t104.5 115.5t38 174t-38 174t-104.5 115.5t-147 61.5t-175.5 20h-47v-260h246 v-222h-246v-260z" />
<glyph unicode="&#xd1;" horiz-adv-x="1644" d="M176 0v1364h338l619 -825v825h335v-1364h-335l-619 827v-827h-338zM502 1507q13 43 29 79.5t41 75t61.5 61t79.5 22.5q44 0 99 -23t101.5 -46t69.5 -23q54 0 88 96l109 -45q-75 -236 -211 -236q-44 0 -99 23t-101.5 45.5t-68.5 22.5q-55 0 -90 -97z" />
<glyph unicode="&#xd2;" horiz-adv-x="1546" d="M74 682q0 194 92.5 355t253.5 254t354 93t354 -93t253 -254t92 -355q0 -145 -54.5 -275.5t-147.5 -224.5t-222.5 -149.5t-274.5 -55.5t-275 55.5t-223 149.5t-147.5 224.5t-54.5 275.5zM346 1749h336l186 -279h-211zM424 682q0 -166 93 -279.5t257 -113.5t256 113.5 t92 279.5q0 165 -93 278t-255 113t-256 -113t-94 -278z" />
<glyph unicode="&#xd3;" horiz-adv-x="1546" d="M74 682q0 194 92.5 355t253.5 254t354 93t354 -93t253 -254t92 -355q0 -145 -54.5 -275.5t-147.5 -224.5t-222.5 -149.5t-274.5 -55.5t-275 55.5t-223 149.5t-147.5 224.5t-54.5 275.5zM424 682q0 -166 93 -279.5t257 -113.5t256 113.5t92 279.5q0 165 -93 278t-255 113 t-256 -113t-94 -278zM684 1470l186 279h336l-313 -279h-209z" />
<glyph unicode="&#xd4;" horiz-adv-x="1546" d="M74 682q0 194 92.5 355t253.5 254t354 93t354 -93t253 -254t92 -355q0 -145 -54.5 -275.5t-147.5 -224.5t-222.5 -149.5t-274.5 -55.5t-275 55.5t-223 149.5t-147.5 224.5t-54.5 275.5zM420 1452l239 285h222l245 -285h-256l-98 123l-100 -123h-252zM424 682 q0 -166 93 -279.5t257 -113.5t256 113.5t92 279.5q0 165 -93 278t-255 113t-256 -113t-94 -278z" />
<glyph unicode="&#xd5;" horiz-adv-x="1546" d="M74 682q0 194 92.5 355t253.5 254t354 93t354 -93t253 -254t92 -355q0 -145 -54.5 -275.5t-147.5 -224.5t-222.5 -149.5t-274.5 -55.5t-275 55.5t-223 149.5t-147.5 224.5t-54.5 275.5zM424 682q0 -166 93 -279.5t257 -113.5t256 113.5t92 279.5q0 165 -93 278t-255 113 t-256 -113t-94 -278zM434 1507q13 43 29 79.5t41 75t61.5 61t79.5 22.5q44 0 99 -23t101.5 -46t69.5 -23q55 0 89 96l108 -45q-75 -236 -211 -236q-44 0 -98.5 23t-100.5 45.5t-69 22.5q-55 0 -90 -97z" />
<glyph unicode="&#xd6;" horiz-adv-x="1546" d="M74 682q0 194 92.5 355t253.5 254t354 93t354 -93t253 -254t92 -355q0 -145 -54.5 -275.5t-147.5 -224.5t-222.5 -149.5t-274.5 -55.5t-275 55.5t-223 149.5t-147.5 224.5t-54.5 275.5zM424 682q0 -166 93 -279.5t257 -113.5t256 113.5t92 279.5q0 165 -93 278t-255 113 t-256 -113t-94 -278zM457 1470v256h243v-256h-243zM844 1470v256h246v-256h-246z" />
<glyph unicode="&#xd7;" horiz-adv-x="1032" d="M86 242l258 258l-258 260l170 172l258 -258l262 258l170 -172l-258 -260l258 -258l-170 -172l-262 258l-258 -258z" />
<glyph unicode="&#xd8;" horiz-adv-x="1564" d="M74 61l168 166q-168 199 -168 455q0 143 56.5 273.5t151.5 224t226 149t274 55.5q262 0 457 -165l166 165l86 -84l-168 -165q168 -199 168 -453q0 -191 -95.5 -353.5t-259 -257t-354.5 -94.5q-258 0 -456 164l-166 -164zM428 682q0 -132 47 -219l541 530q-91 78 -234 78 q-168 0 -261 -108t-93 -281zM551 369q91 -78 231 -78q168 0 262.5 109t94.5 282q0 119 -49 215z" />
<glyph unicode="&#xd9;" horiz-adv-x="1576" d="M156 590v774h350v-776q0 -140 73.5 -219.5t208.5 -79.5q136 0 210.5 78.5t74.5 220.5v776h348v-774q0 -165 -78.5 -304.5t-225 -224t-329.5 -84.5q-138 0 -257.5 49.5t-200.5 133t-127.5 195.5t-46.5 235zM367 1749h335l187 -279h-209z" />
<glyph unicode="&#xda;" horiz-adv-x="1576" d="M156 590v774h350v-776q0 -140 73.5 -219.5t208.5 -79.5q136 0 210.5 78.5t74.5 220.5v776h348v-774q0 -165 -78.5 -304.5t-225 -224t-329.5 -84.5q-138 0 -257.5 49.5t-200.5 133t-127.5 195.5t-46.5 235zM692 1470l187 279h335l-313 -279h-209z" />
<glyph unicode="&#xdb;" horiz-adv-x="1576" d="M156 590v774h350v-776q0 -140 73.5 -219.5t208.5 -79.5q136 0 210.5 78.5t74.5 220.5v776h348v-774q0 -165 -78.5 -304.5t-225 -224t-329.5 -84.5q-138 0 -257.5 49.5t-200.5 133t-127.5 195.5t-46.5 235zM434 1452l242 285h219l248 -285h-256l-96 123l-101 -123h-256z " />
<glyph unicode="&#xdc;" horiz-adv-x="1576" d="M156 590v774h350v-776q0 -140 73.5 -219.5t208.5 -79.5q136 0 210.5 78.5t74.5 220.5v776h348v-774q0 -165 -78.5 -304.5t-225 -224t-329.5 -84.5q-138 0 -257.5 49.5t-200.5 133t-127.5 195.5t-46.5 235zM473 1470v256h244v-256h-244zM860 1470v256h244v-256h-244z" />
<glyph unicode="&#xdd;" horiz-adv-x="1222" d="M-6 1364h350l268 -522l267 522h350l-441 -832v-532h-352v532zM506 1470l186 279h336l-313 -279h-209z" />
<glyph unicode="&#xde;" horiz-adv-x="1419" d="M176 0v1364h350v-207h392q134 0 241 -61.5t165 -166.5t58 -231q0 -127 -58 -233.5t-165 -171t-241 -64.5h-392v-229h-350zM526 514h340q69 0 118.5 51t49.5 133q0 83 -47.5 131t-120.5 48h-340v-363z" />
<glyph unicode="&#xdf;" horiz-adv-x="1351" d="M74 756v213h123v63q0 177 131 280t334 103q116 0 211.5 -31.5t154.5 -84t91 -117t32 -133.5q0 -65 -20 -119t-48.5 -88t-57.5 -61.5t-49 -52t-20 -46.5q0 -25 13.5 -42t48.5 -36q47 -24 69.5 -36.5t56.5 -33.5t49.5 -35.5t35.5 -37.5t28.5 -46t14.5 -53t6 -67 q0 -148 -111.5 -233t-310.5 -85q-47 0 -120.5 14.5t-125.5 37.5l56 223q94 -35 186 -35q48 0 74 15.5t26 41.5t-21 47t-87 56q-72 38 -119 77t-70 78t-31 73t-8 77q0 48 31 95t67.5 80t67.5 78.5t31 90.5q0 65 -39.5 98t-111.5 33q-56 0 -90.5 -32t-34.5 -87v-1038h-340v756 h-123z" />
<glyph unicode="&#xe0;" horiz-adv-x="1097" d="M66 283q0 145 84.5 221t238.5 76h275v63q0 71 -41.5 96t-163.5 25q-164 0 -303 -21l-35 230q191 43 373 43q505 0 505 -389v-627h-319v102q-103 -118 -281 -118q-146 0 -239.5 88t-93.5 211zM94 1407h336l186 -279h-208zM403 291q0 -86 115 -86q65 0 105.5 45t40.5 112 v23h-144q-54 0 -85.5 -24t-31.5 -70z" />
<glyph unicode="&#xe1;" horiz-adv-x="1097" d="M66 283q0 145 84.5 221t238.5 76h275v63q0 71 -41.5 96t-163.5 25q-164 0 -303 -21l-35 230q191 43 373 43q505 0 505 -389v-627h-319v102q-103 -118 -281 -118q-146 0 -239.5 88t-93.5 211zM377 1128l186 279h336l-313 -279h-209zM403 291q0 -86 115 -86q65 0 105.5 45 t40.5 112v23h-144q-54 0 -85.5 -24t-31.5 -70z" />
<glyph unicode="&#xe2;" horiz-adv-x="1097" d="M66 283q0 145 84.5 221t238.5 76h275v63q0 71 -41.5 96t-163.5 25q-164 0 -303 -21l-35 230q191 43 373 43q505 0 505 -389v-627h-319v102q-103 -118 -281 -118q-146 0 -239.5 88t-93.5 211zM182 1124l240 283h221l246 -283h-256l-98 121l-101 -121h-252zM403 291 q0 -86 115 -86q65 0 105.5 45t40.5 112v23h-144q-54 0 -85.5 -24t-31.5 -70z" />
<glyph unicode="&#xe3;" horiz-adv-x="1097" d="M66 283q0 145 84.5 221t238.5 76h275v63q0 71 -41.5 96t-163.5 25q-164 0 -303 -21l-35 230q191 43 373 43q505 0 505 -389v-627h-319v102q-103 -118 -281 -118q-146 0 -239.5 88t-93.5 211zM219 1165q13 43 29 79.5t41 75t61.5 61t79.5 22.5q44 0 99 -23t101.5 -46 t69.5 -23q54 0 88 96l109 -45q-75 -236 -211 -236q-44 0 -98.5 23t-101 45.5t-68.5 22.5q-55 0 -90 -97zM403 291q0 -86 115 -86q65 0 105.5 45t40.5 112v23h-144q-54 0 -85.5 -24t-31.5 -70z" />
<glyph unicode="&#xe4;" horiz-adv-x="1097" d="M66 283q0 145 84.5 221t238.5 76h275v63q0 71 -41.5 96t-163.5 25q-164 0 -303 -21l-35 230q191 43 373 43q505 0 505 -389v-627h-319v102q-103 -118 -281 -118q-146 0 -239.5 88t-93.5 211zM219 1143v256h244v-256h-244zM403 291q0 -86 115 -86q65 0 105.5 45t40.5 112 v23h-144q-54 0 -85.5 -24t-31.5 -70zM606 1143v256h244v-256h-244z" />
<glyph unicode="&#xe5;" horiz-adv-x="1097" d="M66 283q0 145 84.5 221t238.5 76h275v63q0 71 -41.5 96t-163.5 25q-164 0 -303 -21l-35 230q191 43 373 43q505 0 505 -389v-627h-319v102q-103 -118 -281 -118q-146 0 -239.5 88t-93.5 211zM289 1327q0 99 68.5 168.5t166.5 69.5t168 -70t70 -168t-69.5 -166.5 t-168.5 -68.5q-98 0 -166.5 68.5t-68.5 166.5zM403 291q0 -86 115 -86q65 0 105.5 45t40.5 112v23h-144q-54 0 -85.5 -24t-31.5 -70zM418 1327q0 -48 27.5 -83.5t78.5 -35.5t81 35.5t30 83.5t-29.5 84.5t-81.5 36.5q-51 0 -78.5 -36t-27.5 -85z" />
<glyph unicode="&#xe6;" horiz-adv-x="1722" d="M66 303q0 277 323 277h275v63q0 71 -41.5 96t-163.5 25q-164 0 -303 -21l-33 230q191 43 371 43q248 0 378 -98q129 98 304 98q218 0 343.5 -140t125.5 -387v-75h-646v-4q12 -89 82 -134t189 -45q122 0 274 33l58 -225q-149 -55 -338 -55q-256 0 -410 116 q-131 -116 -340 -116t-328.5 89t-119.5 230zM403 299q0 -94 115 -94q65 0 105.5 46t40.5 114v20h-144q-117 0 -117 -86zM1001 606h328q-20 166 -158 166q-66 0 -111.5 -41.5t-58.5 -124.5z" />
<glyph unicode="&#xe7;" horiz-adv-x="1001" d="M61 500q0 227 159.5 371.5t416.5 144.5q66 0 141.5 -13t128.5 -36l-61 -234q-97 23 -180 23q-131 0 -200 -72t-69 -184t69 -184t200 -72q91 0 180 26l59 -235q-119 -51 -268 -51q-255 0 -415.5 144.5t-160.5 371.5zM344 -563l39 129q71 -19 152 -19q79 0 118 27t39 68 q0 71 -121 71q-16 0 -74.5 -2.5t-101.5 -3.5l66 293h178q-12 -43 -21 -72.5t-15.5 -47t-8.5 -25.5q23 2 53 2q121 0 190.5 -59t69.5 -163q0 -103 -99.5 -167t-250.5 -64q-115 0 -213 33z" />
<glyph unicode="&#xe8;" horiz-adv-x="1110" d="M61 500q0 137 59.5 254t176 189.5t266.5 72.5q218 0 343.5 -140t125.5 -387v-75h-645q10 -91 80 -137t190 -46q123 0 275 33l57 -223q-155 -57 -338 -57q-283 0 -436.5 138t-153.5 378zM115 1407h336l186 -279h-209zM389 606h328q-20 166 -158 166q-66 0 -111.5 -41.5 t-58.5 -124.5z" />
<glyph unicode="&#xe9;" horiz-adv-x="1110" d="M61 500q0 137 59.5 254t176 189.5t266.5 72.5q218 0 343.5 -140t125.5 -387v-75h-645q10 -91 80 -137t190 -46q123 0 275 33l57 -223q-155 -57 -338 -57q-283 0 -436.5 138t-153.5 378zM389 606h328q-20 166 -158 166q-66 0 -111.5 -41.5t-58.5 -124.5zM459 1128l186 279 h336l-313 -279h-209z" />
<glyph unicode="&#xea;" horiz-adv-x="1110" d="M61 500q0 137 59.5 254t176 189.5t266.5 72.5q218 0 343.5 -140t125.5 -387v-75h-645q10 -91 80 -137t190 -46q123 0 275 33l57 -223q-155 -57 -338 -57q-283 0 -436.5 138t-153.5 378zM209 1124l240 283h221l245 -283h-256l-98 121l-100 -121h-252zM389 606h328 q-20 166 -158 166q-66 0 -111.5 -41.5t-58.5 -124.5z" />
<glyph unicode="&#xeb;" horiz-adv-x="1110" d="M61 500q0 137 59.5 254t176 189.5t266.5 72.5q218 0 343.5 -140t125.5 -387v-75h-645q10 -91 80 -137t190 -46q123 0 275 33l57 -223q-155 -57 -338 -57q-283 0 -436.5 138t-153.5 378zM244 1143v256h243v-256h-243zM389 606h328q-20 166 -158 166q-66 0 -111.5 -41.5 t-58.5 -124.5zM631 1143v256h243v-256h-243z" />
<glyph unicode="&#xec;" horiz-adv-x="606" d="M-111 1407h336l187 -279h-209zM135 0v997h338v-997h-338z" />
<glyph unicode="&#xed;" horiz-adv-x="606" d="M135 0v997h338v-997h-338zM195 1128l186 279h336l-314 -279h-208z" />
<glyph unicode="&#xee;" horiz-adv-x="606" d="M-55 1124l239 283h222l245 -283h-256l-98 121l-100 -121h-252zM135 0v997h338v-997h-338z" />
<glyph unicode="&#xef;" horiz-adv-x="606" d="M-10 1143v256h243v-256h-243zM135 0v997h338v-997h-338zM377 1143v256h244v-256h-244z" />
<glyph unicode="&#xf0;" horiz-adv-x="1185" d="M61 500q0 136 50 252.5t149.5 190t228.5 73.5q84 0 160.5 -39.5t116.5 -102.5q-19 107 -82 226l-80 -64l-37 47l88 68q-65 100 -194 213h317q25 -20 66 -64l90 70l37 -47l-88 -66q105 -130 167 -304.5t62 -358.5q0 -97 -19 -184.5t-61.5 -166t-105.5 -135.5t-157 -90.5 t-210 -33.5q-115 0 -211 45t-157.5 118.5t-95.5 165t-34 187.5zM397 500q0 -111 49 -185.5t138 -74.5q82 0 135 70t53 190q0 121 -51 189.5t-137 68.5q-89 0 -138 -73.5t-49 -184.5z" />
<glyph unicode="&#xf1;" horiz-adv-x="1241" d="M135 0v997h326v-145q58 72 150.5 118t185.5 46q159 0 239 -102t80 -287v-627h-336v571q0 63 -33 106.5t-100 43.5q-77 0 -125.5 -58t-48.5 -135v-528h-338zM315 1165q13 43 29 79.5t41 75t61.5 61t79.5 22.5q44 0 99.5 -23t102 -46t69.5 -23q54 0 88 96l108 -45 q-75 -236 -211 -236q-44 0 -98.5 23t-101 45.5t-68.5 22.5q-55 0 -90 -97z" />
<glyph unicode="&#xf2;" horiz-adv-x="1171" d="M61 500q0 139 62.5 255.5t184 188.5t278.5 72t278 -72t183.5 -188.5t62.5 -255.5t-62.5 -255.5t-183.5 -188.5t-278 -72t-278.5 72t-184 188.5t-62.5 255.5zM125 1407h336l186 -279h-209zM397 500q0 -118 49.5 -189t139.5 -71t138 70.5t48 189.5t-48 189.5t-138 70.5 t-139.5 -71t-49.5 -189z" />
<glyph unicode="&#xf3;" horiz-adv-x="1171" d="M61 500q0 139 62.5 255.5t184 188.5t278.5 72t278 -72t183.5 -188.5t62.5 -255.5t-62.5 -255.5t-183.5 -188.5t-278 -72t-278.5 72t-184 188.5t-62.5 255.5zM397 500q0 -118 49.5 -189t139.5 -71t138 70.5t48 189.5t-48 189.5t-138 70.5t-139.5 -71t-49.5 -189zM498 1128 l186 279h336l-313 -279h-209z" />
<glyph unicode="&#xf4;" horiz-adv-x="1171" d="M61 500q0 139 62.5 255.5t184 188.5t278.5 72t278 -72t183.5 -188.5t62.5 -255.5t-62.5 -255.5t-183.5 -188.5t-278 -72t-278.5 72t-184 188.5t-62.5 255.5zM233 1124l240 283h221l246 -283h-256l-98 121l-101 -121h-252zM397 500q0 -118 49.5 -189t139.5 -71t138 70.5 t48 189.5t-48 189.5t-138 70.5t-139.5 -71t-49.5 -189z" />
<glyph unicode="&#xf5;" horiz-adv-x="1171" d="M61 500q0 139 62.5 255.5t184 188.5t278.5 72t278 -72t183.5 -188.5t62.5 -255.5t-62.5 -255.5t-183.5 -188.5t-278 -72t-278.5 72t-184 188.5t-62.5 255.5zM260 1165q13 43 29 79.5t41 75t61.5 61t79.5 22.5q44 0 99 -23t101.5 -46t69.5 -23q54 0 88 96l109 -45 q-75 -236 -211 -236q-44 0 -98.5 23t-101 45.5t-68.5 22.5q-55 0 -90 -97zM397 500q0 -118 49.5 -189t139.5 -71t138 70.5t48 189.5t-48 189.5t-138 70.5t-139.5 -71t-49.5 -189z" />
<glyph unicode="&#xf6;" horiz-adv-x="1171" d="M61 500q0 139 62.5 255.5t184 188.5t278.5 72t278 -72t183.5 -188.5t62.5 -255.5t-62.5 -255.5t-183.5 -188.5t-278 -72t-278.5 72t-184 188.5t-62.5 255.5zM266 1143v256h244v-256h-244zM397 500q0 -118 49.5 -189t139.5 -71t138 70.5t48 189.5t-48 189.5t-138 70.5 t-139.5 -71t-49.5 -189zM653 1143v256h244v-256h-244z" />
<glyph unicode="&#xf7;" horiz-adv-x="1189" d="M94 397v224h1002v-224h-1002zM436 152q0 66 46 111.5t112 45.5t113 -45.5t47 -111.5t-47 -112t-113 -46t-112 46t-46 112zM436 866q0 66 46 112t112 46t113 -46t47 -112t-47 -113.5t-113 -47.5t-112 47.5t-46 113.5z" />
<glyph unicode="&#xf8;" horiz-adv-x="1189" d="M61 47l125 119q-125 144 -125 334q0 136 67.5 253.5t191 190t274.5 72.5q202 0 348 -123l127 123l59 -64l-124 -118q124 -143 124 -334q0 -101 -40 -195t-109.5 -165t-170 -113.5t-214.5 -42.5q-202 0 -344 120l-127 -120zM399 500q0 -58 13 -115l323 307q-51 66 -141 66 q-92 0 -143.5 -69.5t-51.5 -188.5zM455 307q51 -67 139 -67q92 0 144.5 70.5t52.5 189.5q0 58 -13 112z" />
<glyph unicode="&#xf9;" horiz-adv-x="1236" d="M121 371v626h336v-571q0 -63 33 -106.5t100 -43.5q77 0 125.5 58t48.5 135v528h338v-997h-324v145q-58 -71 -151 -116t-187 -45q-159 0 -239 101.5t-80 285.5zM176 1407h336l186 -279h-209z" />
<glyph unicode="&#xfa;" horiz-adv-x="1236" d="M121 371v626h336v-571q0 -63 33 -106.5t100 -43.5q77 0 125.5 58t48.5 135v528h338v-997h-324v145q-58 -71 -151 -116t-187 -45q-159 0 -239 101.5t-80 285.5zM506 1128l186 279h336l-313 -279h-209z" />
<glyph unicode="&#xfb;" horiz-adv-x="1236" d="M121 371v626h336v-571q0 -63 33 -106.5t100 -43.5q77 0 125.5 58t48.5 135v528h338v-997h-324v145q-58 -71 -151 -116t-187 -45q-159 0 -239 101.5t-80 285.5zM262 1124l240 283h221l246 -283h-256l-99 121l-100 -121h-252z" />
<glyph unicode="&#xfc;" horiz-adv-x="1236" d="M121 371v626h336v-571q0 -63 33 -106.5t100 -43.5q77 0 125.5 58t48.5 135v528h338v-997h-324v145q-58 -71 -151 -116t-187 -45q-159 0 -239 101.5t-80 285.5zM315 1143v256h244v-256h-244zM702 1143v256h244v-256h-244z" />
<glyph unicode="&#xfd;" horiz-adv-x="1064" d="M4 997h326l202 -632l193 632h326l-476 -1331h-327l119 336zM414 1128l186 279h336l-313 -279h-209z" />
<glyph unicode="&#xfe;" horiz-adv-x="1249" d="M135 -332v1696h338v-485q52 63 127.5 100t157.5 37q98 0 180 -41t136 -111.5t84 -164.5t30 -199t-30 -199t-84 -164.5t-136 -111.5t-180 -41q-82 0 -157.5 37t-127.5 100v-453h-338zM473 500q0 -121 52.5 -190.5t138.5 -69.5q89 0 138.5 74.5t49.5 185.5t-49.5 185.5 t-138.5 74.5q-82 0 -136.5 -70t-54.5 -190z" />
<glyph unicode="&#xff;" horiz-adv-x="1064" d="M4 997h326l202 -632l193 632h326l-476 -1331h-327l119 336zM215 1143v256h244v-256h-244zM602 1143v256h244v-256h-244z" />
<glyph unicode="&#x152;" horiz-adv-x="2066" d="M74 682q0 191 96 348t258.5 245.5t355.5 88.5h1166v-303h-670v-207h637v-303h-637v-248h672v-303h-1168q-193 0 -355.5 88.5t-258.5 245.5t-96 348zM428 682q0 -170 93 -269.5t263 -99.5h142v738h-142q-170 0 -263 -99.5t-93 -269.5z" />
<glyph unicode="&#x153;" horiz-adv-x="1839" d="M61 500q0 139 62.5 255.5t184 188.5t278.5 72q216 0 362 -133q139 133 344 133q218 0 343.5 -140t125.5 -387v-75h-645q10 -91 80 -137t190 -46q123 0 275 33l59 -225q-149 -55 -340 -55q-275 0 -430 133q-146 -133 -364 -133q-157 0 -278.5 72t-184 188.5t-62.5 255.5z M399 500q0 -119 48.5 -189.5t138.5 -70.5t139 71t49 189t-49 189t-139 71t-138.5 -70.5t-48.5 -189.5zM1118 606h328q-20 166 -158 166q-66 0 -111.5 -41.5t-58.5 -124.5z" />
<glyph unicode="&#x178;" horiz-adv-x="1222" d="M-6 1364h350l268 -522l267 522h350l-441 -832v-532h-352v532zM295 1470v256h244v-256h-244zM682 1470v256h246v-256h-246z" />
<glyph unicode="&#x2c6;" horiz-adv-x="935" d="M115 1124l239 283h221l246 -283h-256l-98 121l-100 -121h-252z" />
<glyph unicode="&#x2dc;" horiz-adv-x="907" d="M115 1165q13 43 29 79.5t41 75t61.5 61t79.5 22.5q44 0 99 -23t101.5 -46t69.5 -23q54 0 88 96l109 -45q-75 -236 -211 -236q-44 0 -99 23t-101.5 45.5t-68.5 22.5q-55 0 -90 -97z" />
<glyph unicode="&#x2000;" horiz-adv-x="951" />
<glyph unicode="&#x2001;" horiz-adv-x="1903" />
<glyph unicode="&#x2002;" horiz-adv-x="951" />
<glyph unicode="&#x2003;" horiz-adv-x="1903" />
<glyph unicode="&#x2004;" horiz-adv-x="634" />
<glyph unicode="&#x2005;" horiz-adv-x="475" />
<glyph unicode="&#x2006;" horiz-adv-x="317" />
<glyph unicode="&#x2007;" horiz-adv-x="317" />
<glyph unicode="&#x2008;" horiz-adv-x="237" />
<glyph unicode="&#x2009;" horiz-adv-x="380" />
<glyph unicode="&#x200a;" horiz-adv-x="105" />
<glyph unicode="&#x2010;" horiz-adv-x="794" d="M106 446v271h582v-271h-582z" />
<glyph unicode="&#x2011;" horiz-adv-x="794" d="M106 446v271h582v-271h-582z" />
<glyph unicode="&#x2012;" horiz-adv-x="794" d="M106 446v271h582v-271h-582z" />
<glyph unicode="&#x2013;" horiz-adv-x="1181" d="M106 446v271h969v-271h-969z" />
<glyph unicode="&#x2014;" horiz-adv-x="1638" d="M106 446v271h1426v-271h-1426z" />
<glyph unicode="&#x2018;" horiz-adv-x="634" d="M147 639v352l189 373h151l-153 -373h174v-352h-361z" />
<glyph unicode="&#x2019;" horiz-adv-x="634" d="M127 1014v350h360v-350l-188 -375h-156l158 375h-174z" />
<glyph unicode="&#x201a;" horiz-adv-x="636" d="M127 0v352h362v-352l-190 -373h-154l154 373h-172z" />
<glyph unicode="&#x201c;" horiz-adv-x="1159" d="M147 639v352l189 373h153l-151 -373h170v-352h-361zM672 639v352l190 373h152l-154 -373h172v-352h-360z" />
<glyph unicode="&#x201d;" horiz-adv-x="1157" d="M127 1014v350h360v-350l-188 -375h-156l154 375h-170zM649 1014v350h361v-350l-189 -375h-153l155 375h-174z" />
<glyph unicode="&#x201e;" horiz-adv-x="1157" d="M127 0v352h360v-352l-188 -373h-156l154 373h-170zM649 0v352h361v-352l-189 -373h-155l157 373h-174z" />
<glyph unicode="&#x2022;" horiz-adv-x="616" d="M86 729q0 92 64.5 157.5t156.5 65.5t157.5 -65.5t65.5 -157.5t-65.5 -156.5t-157.5 -64.5t-156.5 64.5t-64.5 156.5z" />
<glyph unicode="&#x2026;" horiz-adv-x="1972" d="M147 0v352h361v-352h-361zM805 0v352h360v-352h-360zM1462 0v352h363v-352h-363z" />
<glyph unicode="&#x202f;" horiz-adv-x="380" />
<glyph unicode="&#x2039;" horiz-adv-x="815" d="M53 498l467 499l139 -131l-344 -366l344 -369l-139 -131z" />
<glyph unicode="&#x203a;" horiz-adv-x="815" d="M156 131l344 369l-344 366l139 131l467 -499l-467 -498z" />
<glyph unicode="&#x205f;" horiz-adv-x="475" />
<glyph unicode="&#x20ac;" horiz-adv-x="1482" d="M37 494v135h178q-2 16 -2 51t2 51h-178v137h201q65 228 263.5 372t473.5 144q226 0 405 -55l-55 -291q-143 31 -295 31q-321 0 -426 -201h295v-137h-334q-4 -32 -4 -51t4 -51h334v-135h-295q105 -205 426 -205q135 0 295 39l55 -291q-183 -60 -405 -60 q-275 0 -473.5 144.5t-263.5 372.5h-201z" />
<glyph unicode="&#x2122;" horiz-adv-x="1474" d="M47 1223v141h561v-141h-198v-482h-162v482h-201zM729 741v623h150l188 -299l186 299h148v-623h-154v340l-137 -217h-86l-141 217v-340h-154z" />
<glyph unicode="&#xe000;" horiz-adv-x="993" d="M0 0v993h993v-993h-993z" />
<glyph unicode="&#xfb01;" horiz-adv-x="1372" d="M57 756v217h125v47q0 185 87 290t272 105q114 0 237 -29l-37 -233q-56 10 -110 10q-113 0 -113 -127v-63h168v-217h-168v-756h-336v756h-125zM899 0v997h338v-997h-338zM899 1163v264h338v-264h-338z" />
<glyph unicode="&#xfb02;" horiz-adv-x="1486" d="M57 756v217h125v47q0 185 87 290t272 105q114 0 237 -29l-37 -233q-56 10 -110 10q-113 0 -113 -127v-63h168v-217h-168v-756h-336v756h-125zM887 338v1026h336v-975q0 -85 18.5 -114t79.5 -29q45 0 92 6v-256q-65 -14 -162 -14q-163 0 -263.5 89t-100.5 267z" />
</font>
</defs>
</svg>
