<?xml version="1.0" standalone="no"?>
<!DOCTYPE svg PUBLIC "-//W3C//DTD SVG 1.1//EN" "http://www.w3.org/Graphics/SVG/1.1/DTD/svg11.dtd" >
<svg xmlns="http://www.w3.org/2000/svg">
<metadata></metadata>
<defs>
<font id="locatorbold" horiz-adv-x="1554" >
<font-face units-per-em="2048" ascent="1638" descent="-410" />
<missing-glyph horiz-adv-x="460" />
<glyph horiz-adv-x="2048" />
<glyph horiz-adv-x="2048" />
<glyph unicode="&#xd;" horiz-adv-x="2048" />
<glyph unicode=" "  horiz-adv-x="460" />
<glyph unicode="&#x09;" horiz-adv-x="460" />
<glyph unicode="&#xa0;" horiz-adv-x="460" />
<glyph unicode="!" horiz-adv-x="690" d="M184 0v319h322v-319h-322zM193 1036v328h305v-328l-82 -575h-140z" />
<glyph unicode="&#x22;" horiz-adv-x="958" d="M164 756v608h209v-608h-209zM586 756v608h209v-608h-209z" />
<glyph unicode="#" horiz-adv-x="1499" d="M82 379l41 178h260l57 252h-260l41 176h260l88 379h193l-88 -379h301l88 379h192l-88 -379h260l-41 -176h-260l-57 -252h260l-41 -178h-260l-88 -379h-192l88 379h-301l-89 -379h-192l88 379h-260zM575 557h302l57 252h-301z" />
<glyph unicode="$" horiz-adv-x="1296" d="M113 102l57 234q278 -92 477 -92q131 0 190.5 32.5t59.5 106.5q0 57 -46.5 86.5t-221.5 94.5q-20 7 -31 11q-119 45 -195.5 84.5t-132.5 89.5t-80 110t-24 140q0 332 420 369v199h198v-197q215 -10 377 -65l-41 -246q-194 53 -418 53q-138 0 -185.5 -22t-47.5 -82 t57.5 -95t274.5 -118q114 -45 183 -81t120.5 -83t72.5 -104t21 -136q0 -160 -123.5 -270.5t-345.5 -128.5v-195h-199v197q-193 20 -417 108z" />
<glyph unicode="%" horiz-adv-x="1810" d="M82 1018q0 157 92 261.5t244 104.5t243 -104t91 -262t-91.5 -264.5t-242.5 -106.5q-152 0 -244 106.5t-92 264.5zM281 1018q0 -53 13 -96.5t45 -74t79 -30.5q69 0 102 58.5t33 142.5q0 53 -12.5 95t-44 71.5t-78.5 29.5q-70 0 -103.5 -57t-33.5 -139zM410 0l755 1364h207 l-756 -1364h-206zM1028 348q0 158 92 262.5t244 104.5t243 -104.5t91 -262.5t-91.5 -264.5t-242.5 -106.5q-152 0 -244 106.5t-92 264.5zM1227 348q0 -53 13 -96.5t45 -74t79 -30.5q69 0 102 58.5t33 142.5q0 39 -7.5 72.5t-22.5 62.5t-42 45.5t-63 16.5q-47 0 -79 -29.5 t-45 -72.5t-13 -95z" />
<glyph unicode="&#x26;" horiz-adv-x="1478" d="M102 406q0 129 71 220t210 158q-69 100 -99 163t-30 136q0 142 94 221.5t279 79.5q161 0 257.5 -80.5t96.5 -199.5q0 -103 -63.5 -197.5t-192.5 -165.5q70 -74 254 -274q81 134 119 319l217 -55q-23 -120 -69.5 -239t-102.5 -203q141 -156 264 -289h-342l-92 106 q-172 -129 -381 -129q-215 0 -352.5 123t-137.5 306zM397 410q0 -85 53.5 -137t151.5 -52q113 0 211 66q-277 317 -293 336q-123 -74 -123 -213zM510 1077q0 -47 31 -101t77 -97q69 38 101.5 93t32.5 107q0 50 -31 80.5t-90 30.5q-60 0 -90.5 -29.5t-30.5 -83.5z" />
<glyph unicode="'" horiz-adv-x="536" d="M164 754v610h209v-610h-209z" />
<glyph unicode="(" horiz-adv-x="747" d="M164 623q0 535 307 938l195 -99q-113 -227 -159 -416.5t-46 -422.5t46.5 -423t158.5 -417l-183 -98q-319 395 -319 938z" />
<glyph unicode=")" horiz-adv-x="747" d="M82 -217q112 227 158.5 417t46.5 423t-46 422.5t-159 416.5l194 99q308 -405 308 -938q0 -541 -320 -938z" />
<glyph unicode="*" horiz-adv-x="997" d="M92 836l256 118l-256 117l101 176l231 -164l-27 281h203l-27 -281l230 164l102 -176l-256 -117l256 -118l-102 -174l-230 161l27 -280h-203l27 280l-231 -161z" />
<glyph unicode="+" horiz-adv-x="1200" d="M113 383v209h381v385h215v-385h378v-209h-378v-383h-215v383h-381z" />
<glyph unicode="," horiz-adv-x="608" d="M133 0v319h322v-319l-168 -342h-135l137 342h-156z" />
<glyph unicode="-" horiz-adv-x="790" d="M113 457v239h565v-239h-565z" />
<glyph unicode="." horiz-adv-x="626" d="M154 0v319h319v-319h-319z" />
<glyph unicode="/" horiz-adv-x="1048" d="M102 -240l592 1624h252l-592 -1624h-252z" />
<glyph unicode="0" horiz-adv-x="1341" d="M109 672q0 142 36.5 266.5t105.5 220t177.5 150.5t243.5 55q109 0 200.5 -36t157.5 -99.5t112 -150.5t68.5 -190t22.5 -216t-22.5 -216t-68.5 -190.5t-112 -151.5t-157.5 -100.5t-200.5 -36.5q-135 0 -243.5 55.5t-177.5 151.5t-105.5 221t-36.5 267zM401 672 q0 -86 14 -161t44 -139t84.5 -101.5t128.5 -37.5q59 0 106 25t77 66.5t49.5 99.5t27.5 119t8 129t-8 129t-27.5 118t-49.5 98t-77 66t-106 25q-74 0 -128.5 -37t-84.5 -100.5t-44 -138t-14 -160.5z" />
<glyph unicode="1" horiz-adv-x="946" d="M51 1266l387 77h293v-1343h-293l-2 1094l-344 -62z" />
<glyph unicode="2" horiz-adv-x="1304" d="M133 0v78q0 67 8.5 120t21.5 95t42.5 81.5t58 69t82.5 67.5t101 68t127 79q39 23 59 36q131 81 179 130.5t48 117.5q0 85 -68 125.5t-219 40.5q-157 0 -376 -51l-50 237q109 34 234.5 52t226.5 18q264 0 405.5 -110t141.5 -300q0 -70 -20.5 -128.5t-66 -112t-102.5 -99 t-145 -102.5q-37 -24 -97.5 -62t-93 -59.5t-70.5 -48t-57 -47.5t-24 -39h682v-256h-1028z" />
<glyph unicode="3" horiz-adv-x="1191" d="M92 47l49 227q161 -49 340 -49q147 0 228.5 46t81.5 132q0 166 -271 166h-237v236h223q114 0 171.5 43.5t57.5 122.5q0 72 -73 112.5t-207 40.5q-145 0 -295 -45l-51 221q175 64 374 64q157 0 277.5 -38.5t193 -121t72.5 -198.5q0 -88 -46.5 -170t-137.5 -134 q116 -37 182 -123.5t66 -191.5q0 -83 -42.5 -157.5t-119.5 -130.5t-192.5 -89t-252.5 -33q-202 0 -391 70z" />
<glyph unicode="4" horiz-adv-x="1331" d="M72 291v258l655 794h317v-811h195v-241h-195v-291h-282v291h-690zM352 532h410v492z" />
<glyph unicode="5" horiz-adv-x="1296" d="M123 76l67 229q228 -76 418 -76q135 0 208 54.5t73 138.5q0 85 -62.5 133.5t-179.5 48.5q-132 0 -223 -47l-238 129l68 657h844v-256h-592l-25 -274q106 39 238 39q218 0 341.5 -118t123.5 -304q0 -92 -36.5 -172.5t-106 -143.5t-181 -100t-252.5 -37q-249 0 -485 99z " />
<glyph unicode="6" horiz-adv-x="1273" d="M102 580q0 231 84 408.5t242 276.5t367 99q181 0 311 -43l-43 -240q-115 31 -227 31q-108 0 -186 -27.5t-126.5 -82t-75 -123.5t-38.5 -164q115 121 319 121q191 0 311.5 -116.5t120.5 -297.5q0 -189 -141.5 -317t-362.5 -128q-269 0 -412 162.5t-143 440.5zM410 408 q0 -87 66 -135t159 -48q107 0 169 55t62 132q0 86 -62 136t-163 50q-104 0 -167.5 -54.5t-63.5 -135.5z" />
<glyph unicode="7" horiz-adv-x="1107" d="M72 1087v256h985v-256l-535 -1087h-297l533 1087h-686z" />
<glyph unicode="8" horiz-adv-x="1251" d="M92 399q0 104 58.5 191t166.5 141q-71 51 -111 122t-40 153q0 166 127 262t334 96t332.5 -95.5t125.5 -262.5q0 -82 -40 -153t-111 -122q108 -54 166.5 -141t58.5 -191q0 -180 -145 -301t-387 -121q-243 0 -389 121t-146 301zM383 399q0 -80 68 -131t176 -51t174.5 51 t66.5 131q0 72 -62.5 128.5t-178.5 56.5t-180 -56.5t-64 -128.5zM438 971q0 -78 54 -126t133 -48h2q79 0 132.5 48t53.5 126q0 69 -48 115.5t-138 46.5q-91 0 -140 -46.5t-49 -115.5z" />
<glyph unicode="9" horiz-adv-x="1271" d="M102 918q0 189 141.5 317.5t362.5 128.5q269 0 411 -161.5t142 -440.5q0 -231 -84 -409t-241.5 -277t-366.5 -99q-179 0 -309 43l41 238q115 -31 227 -31q108 0 186 27.5t126.5 82t75 124t38.5 164.5q-115 -121 -320 -121q-191 0 -310.5 116.5t-119.5 297.5zM395 928 q0 -86 63 -135.5t165 -49.5q104 0 166.5 54t62.5 135q0 87 -66 135.5t-159 48.5q-107 0 -169.5 -55.5t-62.5 -132.5z" />
<glyph unicode=":" horiz-adv-x="626" d="M154 0v319h319v-319h-319zM154 657v320h319v-320h-319z" />
<glyph unicode=";" horiz-adv-x="618" d="M143 0v319h322v-319l-168 -342h-135l137 342h-156zM143 657v320h322v-320h-322z" />
<glyph unicode="&#x3c;" horiz-adv-x="1148" d="M51 418v151l996 441v-215l-703 -301l703 -301v-216z" />
<glyph unicode="=" horiz-adv-x="1161" d="M102 133v219h957v-219h-957zM102 600v219h957v-219h-957z" />
<glyph unicode="&#x3e;" horiz-adv-x="1148" d="M102 -23v216l703 301l-703 301v215l996 -441v-151z" />
<glyph unicode="?" horiz-adv-x="1189" d="M92 1307q105 34 236 55.5t229 21.5q256 0 393 -104t137 -297q0 -143 -116 -284t-348 -273l-125 182q23 18 61.5 48t58 45.5t49 40.5t44 41.5t33.5 40.5t27.5 45t15 47.5t6.5 54.5q0 82 -66 119.5t-205 37.5q-188 0 -381 -55zM422 0v319h319v-319h-319z" />
<glyph unicode="@" horiz-adv-x="1574" d="M133 682q0 204 82.5 364.5t230 249t334.5 88.5q200 0 319.5 -105t119.5 -278v-647h-185v86q-76 -98 -196 -98q-88 0 -155 50t-99.5 127t-32.5 167q0 86 32.5 163.5t99.5 129t155 51.5q127 0 211 -98v55q0 110 -67.5 173t-201.5 63q-224 0 -348.5 -147t-124.5 -394 q0 -115 41.5 -215t117.5 -173.5t189.5 -116t251.5 -42.5q290 0 563 103l43 -136q-125 -59 -284.5 -92t-321.5 -33q-160 0 -302 52.5t-246.5 144.5t-165 224t-60.5 284zM745 686q0 -82 38 -137t106 -55q66 0 105.5 52t39.5 140t-40 141.5t-105 53.5q-68 0 -106 -56.5 t-38 -138.5z" />
<glyph unicode="A" horiz-adv-x="1357" d="M20 0l519 1364h282l516 -1364h-301l-104 281h-504l-106 -281h-302zM502 512h354l-176 545z" />
<glyph unicode="B" horiz-adv-x="1398" d="M184 0v1364h678q193 0 305.5 -96.5t112.5 -257.5q0 -89 -51 -170.5t-162 -122.5q129 -39 194.5 -130t65.5 -194q0 -100 -48 -189t-141 -146.5t-210 -57.5h-744zM483 244h351q92 0 139 45t47 121t-47 120.5t-139 44.5h-351v-331zM483 805h303q93 0 140 44t47 120 q0 153 -187 153h-303v-317z" />
<glyph unicode="C" horiz-adv-x="1351" d="M82 682q0 145 55.5 273.5t154 223.5t241.5 150t309 55q231 0 397 -59l-68 -254q-143 41 -286 41q-243 0 -369.5 -118t-126.5 -312t126.5 -313t369.5 -119q142 0 286 41l62 -250q-180 -64 -391 -64q-165 0 -307.5 55.5t-241.5 151t-155 224.5t-56 274z" />
<glyph unicode="D" horiz-adv-x="1439" d="M184 0v1364h320q260 0 459.5 -87t307 -242t107.5 -353t-107.5 -353t-307 -242t-459.5 -87h-320zM492 272h69q82 0 154.5 14.5t136 46.5t109.5 79t72 116t26 154t-26 154t-72 116t-109.5 79t-136 46.5t-154.5 14.5h-69v-820z" />
<glyph unicode="E" horiz-adv-x="1308" d="M184 0v1364h1002v-264h-694v-264h655v-265h-655v-307h694v-264h-1002z" />
<glyph unicode="F" horiz-adv-x="1306" d="M184 0v1364h1051v-264h-743v-264h669v-265h-669v-571h-308z" />
<glyph unicode="G" horiz-adv-x="1437" d="M82 680q0 205 100.5 366.5t275 249.5t392.5 88q219 0 395 -43l-41 -258q-167 29 -315 29q-249 0 -374.5 -111t-125.5 -321q0 -191 116 -310.5t322 -119.5q118 0 201 14v438h287v-661q-77 -25 -220 -44.5t-241 -19.5q-141 0 -264.5 35.5t-215.5 100t-158.5 152t-100 193.5 t-33.5 222z" />
<glyph unicode="H" horiz-adv-x="1574" d="M184 0v1364h308v-541h591v541h308v-1364h-308v551h-591v-551h-308z" />
<glyph unicode="I" horiz-adv-x="696" d="M195 0v1364h307v-1364h-307z" />
<glyph unicode="J" horiz-adv-x="915" d="M102 -8v237h185q84 0 120.5 54t36.5 155v674h-315v252h623v-930q0 -442 -457 -442h-193z" />
<glyph unicode="K" horiz-adv-x="1452" d="M184 0v1364h308v-530l507 530h406l-668 -662l695 -702h-406l-534 559v-559h-308z" />
<glyph unicode="L" horiz-adv-x="1189" d="M184 0v1364h308v-1100h657v-264h-965z" />
<glyph unicode="M" horiz-adv-x="1798" d="M184 0v1364h295l420 -713l420 713h295v-1364h-295v821l-338 -569h-166l-336 571v-823h-295z" />
<glyph unicode="N" horiz-adv-x="1630" d="M184 0v1364h299l660 -903v903h303v-1364h-299l-660 901v-901h-303z" />
<glyph unicode="O" d="M82 680q0 192 91.5 353.5t251.5 256t351 94.5q143 0 272.5 -55.5t222.5 -150t147.5 -225t54.5 -273.5q0 -192 -92.5 -353.5t-253 -255.5t-351.5 -94q-143 0 -272 55.5t-221.5 149.5t-146.5 224t-54 274zM389 680q0 -191 102.5 -310.5t284.5 -119.5t285.5 119.5 t103.5 310.5t-103.5 311.5t-285.5 120.5q-181 0 -284 -120.5t-103 -311.5z" />
<glyph unicode="P" horiz-adv-x="1402" d="M184 0v1364h717q133 0 239 -60.5t164 -162t58 -223.5t-57.5 -225t-164.5 -165.5t-239 -62.5h-412v-465h-305zM489 713h361q80 0 138.5 60t58.5 145t-58 142.5t-139 57.5h-358z" />
<glyph unicode="Q" d="M82 682q0 192 91.5 353t251.5 255t351 94q143 0 272.5 -55.5t222.5 -149.5t147.5 -224t54.5 -273q0 -252 -155 -444.5t-394 -243.5v-381h-295v381q-239 51 -393 243.5t-154 444.5zM389 682q0 -191 103 -311.5t284 -120.5q182 0 285.5 120.5t103.5 311.5t-103.5 310.5 t-285.5 119.5t-284.5 -119.5t-102.5 -310.5z" />
<glyph unicode="R" horiz-adv-x="1556" d="M184 0v1364h742q192 0 320 -128t128 -310q0 -128 -67 -232.5t-185 -158.5l394 -535h-381l-357 489h-286v-489h-308zM492 729h372q81 0 138 56t57 141q0 84 -56.5 137t-138.5 53h-372v-387z" />
<glyph unicode="S" horiz-adv-x="1361" d="M113 92l63 236q281 -90 504 -90q276 0 276 141q0 51 -44 78t-195 83l-88 33q-74 28 -123 48t-102 46t-86 49.5t-64.5 54.5t-48.5 65t-27 76.5t-10 93.5q0 190 137.5 284t425.5 94q116 0 254 -19t242 -50l-47 -250q-90 26 -213 40.5t-232 14.5q-145 0 -202.5 -23 t-57.5 -83q0 -55 55.5 -88.5t236.5 -102.5q45 -17 69 -26q196 -77 254 -108q109 -60 146 -143q28 -63 28 -159q0 -125 -75 -219t-206 -142.5t-299 -48.5q-279 0 -571 115z" />
<glyph unicode="T" horiz-adv-x="1243" d="M20 1096v268h1203v-268h-447v-1096h-307v1096h-449z" />
<glyph unicode="U" horiz-adv-x="1556" d="M164 567v797h307v-797q0 -145 85.5 -230t221.5 -85t221.5 85t85.5 230v797h308v-797q0 -118 -44.5 -225t-123.5 -188t-195 -129t-252 -48q-180 0 -322 82t-217 216t-75 292z" />
<glyph unicode="V" horiz-adv-x="1304" d="M16 1364h308l329 -997l328 997h307l-477 -1364h-315z" />
<glyph unicode="W" horiz-adv-x="1767" d="M31 1364h303l186 -797l258 797h211l258 -797l187 797h303l-332 -1364h-244l-278 852l-277 -852h-244z" />
<glyph unicode="X" horiz-adv-x="1294" d="M10 0l467 688l-459 676h336l293 -438l291 438h338l-461 -676l469 -688h-338l-299 453l-301 -453h-336z" />
<glyph unicode="Y" horiz-adv-x="1234" d="M0 1364h307l311 -557l310 557h307l-463 -827v-537h-307v537z" />
<glyph unicode="Z" horiz-adv-x="1323" d="M102 0v276l746 824h-727v264h1093v-272l-741 -828h768v-264h-1139z" />
<glyph unicode="[" horiz-adv-x="739" d="M184 -258v1876h535v-234h-236v-1407h236v-235h-535z" />
<glyph unicode="\" horiz-adv-x="1048" d="M102 1384h252l592 -1624h-252z" />
<glyph unicode="]" horiz-adv-x="739" d="M20 -23h236v1407h-236v234h535v-1876h-535v235z" />
<glyph unicode="^" horiz-adv-x="980" d="M51 670l346 694h189l344 -694h-228l-210 473l-213 -473h-228z" />
<glyph unicode="_" horiz-adv-x="954" d="M0 -23h954v-94h-954v94z" />
<glyph unicode="`" horiz-adv-x="700" d="M92 1401h297l189 -273h-189z" />
<glyph unicode="a" horiz-adv-x="1077" d="M72 281q0 144 84 219t239 75h287v74q0 78 -47.5 108.5t-175.5 30.5q-137 0 -307 -20l-23 213q194 35 358 35q232 0 360 -92.5t128 -284.5v-639h-279v106q-101 -122 -288 -122q-147 0 -241.5 85.5t-94.5 211.5zM365 287q0 -103 137 -103q82 0 131 51t49 132v26h-180 q-137 0 -137 -106z" />
<glyph unicode="b" horiz-adv-x="1228" d="M143 0v1364h295v-494q117 146 293 146q100 0 183.5 -43.5t137 -116t82.5 -164.5t29 -192q0 -96 -29.5 -187.5t-82.5 -165t-136.5 -118.5t-183.5 -45q-83 0 -159.5 40.5t-133.5 108.5v-133h-295zM438 500q0 -130 60.5 -210.5t156.5 -80.5q101 0 157 83t56 208t-55.5 206.5 t-157.5 81.5q-99 0 -158 -78.5t-59 -209.5z" />
<glyph unicode="c" horiz-adv-x="995" d="M66 500q0 221 157 368.5t406 147.5q141 0 264 -51l-47 -209q-101 28 -193 28q-146 0 -220.5 -77t-74.5 -207t75 -208.5t220 -78.5q81 0 193 31l47 -209q-125 -51 -264 -51q-249 0 -406 147.5t-157 368.5z" />
<glyph unicode="d" horiz-adv-x="1228" d="M66 500q0 100 29 192t82.5 164.5t137 116t183.5 43.5q176 0 293 -146v494h294v-1364h-294v133q-57 -68 -133.5 -108.5t-159.5 -40.5q-100 0 -183.5 45t-136.5 118.5t-82.5 165t-29.5 187.5zM360 500q0 -125 56 -208t157 -83q96 0 157 80.5t61 210.5q0 131 -59 209.5 t-159 78.5q-102 0 -157.5 -81.5t-55.5 -206.5z" />
<glyph unicode="e" horiz-adv-x="1110" d="M66 500q0 102 34.5 195.5t96.5 164.5t156 113.5t206 42.5q217 0 345 -142.5t128 -381.5v-78h-682q0 -93 74.5 -149t220.5 -56q141 0 281 39l51 -209q-149 -55 -336 -55q-274 0 -424.5 139.5t-150.5 376.5zM352 596h404q-9 93 -59.5 146t-137.5 53q-82 0 -138 -51 t-69 -148z" />
<glyph unicode="f" horiz-adv-x="763" d="M61 784v193h129v59q0 182 86.5 280.5t258.5 98.5q107 0 219 -31l-33 -206q-54 10 -115 10q-121 0 -121 -141v-70h181v-193h-181v-784h-295v784h-129z" />
<glyph unicode="g" horiz-adv-x="1216" d="M66 516q0 135 49 247t148.5 182.5t232.5 70.5q178 0 295 -146v127h292v-868q0 -229 -152.5 -353t-416.5 -124q-66 0 -99 1t-103.5 10.5t-135.5 29.5l35 205q137 -37 268 -37q163 0 237.5 57.5t74.5 167.5v64q-53 -64 -130.5 -98t-164.5 -34q-100 0 -183 42t-136 112.5 t-82 159t-29 184.5zM360 516q0 -123 55 -197.5t158 -74.5q99 0 158.5 65t59.5 191q0 131 -59 209.5t-159 78.5q-103 0 -158 -74.5t-55 -197.5z" />
<glyph unicode="h" horiz-adv-x="1222" d="M143 0v1364h285v-516q47 69 140.5 118.5t197.5 49.5q163 0 243.5 -104.5t80.5 -288.5v-623h-293v575q0 84 -39 132.5t-119 48.5q-73 0 -137 -55.5t-64 -129.5v-571h-295z" />
<glyph unicode="i" horiz-adv-x="581" d="M143 0v997h295v-997h-295zM143 1163v252h295v-252h-295z" />
<glyph unicode="j" horiz-adv-x="583" d="M-41 -113q37 -6 90 -6q64 0 85.5 31t21.5 117v968h295v-1005q0 -171 -95 -256.5t-250 -85.5q-85 0 -147 8v229zM156 1163v252h295v-252h-295z" />
<glyph unicode="k" horiz-adv-x="1163" d="M143 0v1364h293v-741l350 374h342l-460 -491l475 -506h-340l-367 391v-391h-293z" />
<glyph unicode="l" horiz-adv-x="706" d="M133 324v1040h293v-1002q0 -85 22 -116t87 -31t90 4v-227q-77 -10 -148 -10q-155 0 -249.5 85.5t-94.5 256.5z" />
<glyph unicode="m" horiz-adv-x="1849" d="M143 0v997h287v-149q48 70 135 119t189 49q201 0 280 -168q50 66 150.5 117t206.5 51q163 0 244 -104.5t81 -288.5v-623h-295v575q0 84 -38.5 132.5t-118.5 48.5q-72 0 -129.5 -55t-57.5 -130v-571h-295v575q0 84 -38.5 132.5t-118.5 48.5q-72 0 -129.5 -55t-57.5 -130 v-571h-295z" />
<glyph unicode="n" horiz-adv-x="1222" d="M143 0v997h285v-149q47 69 140.5 118.5t197.5 49.5q163 0 243.5 -104.5t80.5 -288.5v-623h-295v575q0 84 -39 132.5t-119 48.5q-73 0 -137 -55.5t-64 -129.5v-571h-293z" />
<glyph unicode="o" horiz-adv-x="1171" d="M66 500q0 136 65 253.5t185.5 190t269.5 72.5t269.5 -72.5t185.5 -190t65 -253.5t-65 -253.5t-185.5 -190t-269.5 -72.5t-269.5 72.5t-185.5 190t-65 253.5zM360 500q0 -132 60.5 -211.5t165.5 -79.5t165 79.5t60 211.5t-60 211.5t-165 79.5t-165.5 -79.5t-60.5 -211.5z " />
<glyph unicode="p" horiz-adv-x="1228" d="M143 -332v1329h295v-131q57 67 134.5 108.5t160.5 41.5q100 0 183 -45t136 -119t82 -165t29 -187q0 -100 -29 -192t-82 -164.5t-136 -116t-183 -43.5q-178 0 -295 145v-461h-295zM438 500q0 -131 59 -211t158 -80q101 0 157 83t56 208t-55.5 206.5t-157.5 81.5 q-96 0 -156.5 -79t-60.5 -209z" />
<glyph unicode="q" horiz-adv-x="1228" d="M66 500q0 96 29 187t82 165t136 119t183 45q83 0 160.5 -41.5t134.5 -108.5v131h294v-1329h-294v461q-117 -145 -295 -145q-100 0 -183 43.5t-136 116t-82 164.5t-29 192zM360 500q0 -125 56 -208t157 -83q99 0 158.5 80t59.5 211q0 129 -61 208.5t-157 79.5 q-102 0 -157.5 -81.5t-55.5 -206.5z" />
<glyph unicode="r" horiz-adv-x="827" d="M143 0v997h287v-170q33 74 106 131.5t175 57.5q25 0 65 -6l-2 -260q-54 4 -76 4q-121 0 -190.5 -87.5t-69.5 -222.5v-444h-295z" />
<glyph unicode="s" horiz-adv-x="1009" d="M82 74l55 202q213 -71 369 -71q85 0 116 18.5t31 52.5q0 33 -28 52t-123 57q-65 27 -96.5 40.5t-78.5 35.5t-68 35t-50 34t-41 38.5t-25.5 42t-17.5 51.5t-4 61q0 293 420 293q80 0 185 -14.5t179 -40.5l-39 -216q-67 19 -159.5 34.5t-161.5 15.5q-83 0 -113.5 -14 t-30.5 -44q0 -10 1.5 -18t7 -15.5t10.5 -12.5t17 -12t22 -12t29.5 -13t35.5 -14t45 -17.5t52 -20.5q68 -27 107.5 -44t80.5 -39t61.5 -42t38 -48t23.5 -60.5t6 -77.5q0 -139 -118.5 -223t-311.5 -84q-200 0 -426 90z" />
<glyph unicode="t" horiz-adv-x="741" d="M41 809v188h129v279h293v-279h172v-188h-172v-490q0 -65 31 -88.5t84 -23.5q7 0 55 6l26 -215q-72 -14 -145 -14q-156 0 -250 76.5t-94 234.5v514h-129z" />
<glyph unicode="u" horiz-adv-x="1224" d="M133 375v622h295v-575q0 -83 39 -130.5t119 -47.5q74 0 137 54t63 128v571h295v-997h-286v150q-47 -69 -139.5 -117.5t-196.5 -48.5q-164 0 -245 104t-81 287z" />
<glyph unicode="v" horiz-adv-x="1052" d="M16 997h285l225 -696l226 696h284l-364 -997h-293z" />
<glyph unicode="w" horiz-adv-x="1472" d="M10 997h271l151 -673l176 673h256l172 -673l152 673h274l-274 -997h-285l-166 651l-172 -651h-284z" />
<glyph unicode="x" horiz-adv-x="1032" d="M31 0l336 508l-328 489h303l174 -278l176 278h303l-329 -489l335 -508h-301l-184 283l-182 -283h-303z" />
<glyph unicode="y" horiz-adv-x="1038" d="M4 997h285l229 -680l221 680h285l-485 -1331h-285l121 336z" />
<glyph unicode="z" horiz-adv-x="1132" d="M123 0v215l522 567h-479v215h835v-213l-534 -567h543v-217h-887z" />
<glyph unicode="{" horiz-adv-x="722" d="M51 766h35q64 0 89.5 36.5t25.5 125.5v446q0 49 12 90.5t38 77t72 56t109 20.5h281v-213h-127q-49 0 -67.5 -24t-18.5 -74v-342q0 -129 -75.5 -213t-223.5 -88q75 -2 133.5 -27t94 -67t53.5 -95t18 -115v-342q0 -50 18.5 -74t67.5 -24h127v-213h-281q-63 0 -109 20.5 t-72 56t-38 77t-12 90.5v448q0 89 -25.5 125.5t-89.5 36.5h-33z" />
<glyph unicode="|" horiz-adv-x="618" d="M205 -410v2048h209v-2048h-209z" />
<glyph unicode="}" horiz-adv-x="722" d="M10 -80h127q49 0 67.5 24t18.5 74v342q0 130 75 215t224 89q-149 4 -224 87.5t-75 213.5v342q0 50 -18.5 74t-67.5 24h-127v213h281q63 0 109 -20.5t72 -56t38 -77t12 -90.5v-446q0 -89 25.5 -125.5t89.5 -36.5h35l-2 -205h-33q-64 0 -89.5 -36.5t-25.5 -125.5v-448 q0 -49 -12 -90.5t-38 -77t-72 -56t-109 -20.5h-281v213z" />
<glyph unicode="~" horiz-adv-x="929" d="M41 446q17 51 41 97.5t58 91.5t81.5 71.5t100.5 26.5q47 0 95 -20t80.5 -43.5t68.5 -43.5t61 -20q74 0 125 129l137 -65q-17 -51 -41 -97t-58 -90.5t-81.5 -71t-100.5 -26.5q-60 0 -119.5 31.5t-107 62.5t-78.5 31q-74 0 -125 -129z" />
<glyph unicode="&#xa1;" horiz-adv-x="690" d="M184 1044v320h322v-320h-322zM193 0v328l81 575h140l84 -575v-328h-305z" />
<glyph unicode="&#xa2;" horiz-adv-x="995" d="M66 500q0 212 146 357t380 157v129h49v-127q135 -3 252 -51l-47 -209q-101 28 -193 28h-12v-569q2 0 6 -1t6 -1q81 0 193 31l47 -209q-116 -48 -252 -51v-127h-49v129q-234 12 -380 157t-146 357zM360 500q0 -114 58.5 -189t173.5 -92v561q-115 -17 -173.5 -91.5 t-58.5 -188.5z" />
<glyph unicode="&#xa3;" horiz-adv-x="1470" d="M133 0v242h135q82 171 82 333v5h-184v153h164q-62 169 -62 273q0 192 137 285t426 93q126 0 262.5 -17t233.5 -50l-43 -252q-89 25 -213.5 40t-234.5 15q-147 0 -204 -22.5t-57 -83.5q0 -40 9 -86t19 -80.5t36 -114.5h408v-153h-385v-9q0 -197 -84 -329h682v-242h-1127z " />
<glyph unicode="&#xa4;" horiz-adv-x="1470" d="M41 489v127h164q-2 20 -2 66q0 39 2 59h-164v125h186q63 230 261 374t473 144q122 0 203.5 -12t193.5 -47l-43 -256q-165 43 -311 43q-178 0 -294 -65.5t-165 -180.5h344v-125h-375q-4 -40 -4 -59q0 -26 4 -66h375v-127h-340q52 -112 166 -175.5t289 -63.5q140 0 311 43 l39 -252q-195 -64 -393 -64q-272 0 -469.5 142.5t-262.5 369.5h-188z" />
<glyph unicode="&#xa5;" horiz-adv-x="1236" d="M0 1364h307l311 -559l312 559h307l-322 -571h181v-166h-273l-51 -90v-48h324v-165h-324v-324h-307v324h-326v165h326v48l-49 90h-277v166h183z" />
<glyph unicode="&#xa6;" horiz-adv-x="618" d="M205 -410v838h209v-838h-209zM205 801v837h209v-837h-209z" />
<glyph unicode="&#xa7;" horiz-adv-x="1193" d="M102 -252l54 205q245 -80 434 -80q239 0 239 121q0 45 -40 69t-178 75q-13 5 -21 8l-20 7.5t-23 8.5q-105 39 -174 74.5t-121.5 82t-76 104.5t-23.5 134q0 87 38.5 149t100.5 97q-71 46 -105 105.5t-34 148.5q0 164 117.5 245.5t365.5 81.5q107 0 224 -15t200 -44 l-37 -217q-179 49 -383 49q-124 0 -174.5 -20t-50.5 -72q0 -47 46 -75t197 -86q14 -5 22 -8t20.5 -8t23.5 -9q55 -21 87.5 -34.5t74 -32t65 -33t50.5 -35t41 -40.5t27.5 -45.5t18.5 -55.5t5 -66q0 -79 -39 -151.5t-115 -123.5q81 -43 117.5 -101.5t36.5 -160.5 q0 -161 -138.5 -255.5t-359.5 -94.5q-248 0 -492 98zM416 569q0 -64 55.5 -102t230.5 -105q57 23 92 67t35 91q0 45 -40 69t-178 75q-13 5 -21 8l-20 7.5t-23 8.5l-49 19q-37 -20 -59.5 -58.5t-22.5 -79.5z" />
<glyph unicode="&#xa8;" horiz-adv-x="847" d="M123 1147v213h223v-213h-223zM502 1147v213h223v-213h-223z" />
<glyph unicode="&#xa9;" horiz-adv-x="1495" d="M66 682q0 142 51.5 271t140.5 224t216.5 151t273.5 56t273.5 -56t216.5 -151t140.5 -224t51.5 -271t-51.5 -271.5t-140.5 -225t-216.5 -152t-273.5 -56.5t-273.5 56.5t-216.5 152t-140.5 225t-51.5 271.5zM188 682q0 -114 40 -220t111 -188.5t178 -132t231 -49.5 t231 49.5t177.5 132t110.5 188.5t40 220q0 91 -25 177.5t-73.5 160.5t-115.5 130t-156 88t-189 32q-165 0 -295 -84.5t-197.5 -217.5t-67.5 -286zM412 682q0 150 108 252t275 102q63 0 103.5 -6t96.5 -24l-22 -129q-93 22 -156 22q-123 0 -186.5 -59.5t-63.5 -157.5 t63.5 -158.5t186.5 -60.5q60 0 156 22l20 -127q-105 -32 -198 -32q-166 0 -274.5 103t-108.5 253z" />
<glyph unicode="&#xaa;" horiz-adv-x="808" d="M92 893q0 96 56.5 146.5t160.5 50.5h191v49q0 52 -31 73t-117 21q-88 0 -207 -14l-14 143q116 22 240 22q325 0 325 -251v-428h-184v71q-70 -82 -195 -82q-98 0 -161.5 57.5t-63.5 141.5zM289 897q0 -70 92 -70q55 0 87 34t32 89v19h-119q-92 0 -92 -72z" />
<glyph unicode="&#xab;" horiz-adv-x="1290" d="M61 498l467 499l125 -116l-358 -381l358 -383l-125 -117zM535 498l466 499l125 -116l-358 -381l358 -383l-122 -117z" />
<glyph unicode="&#xac;" horiz-adv-x="1142" d="M123 383v209h835v-592h-217v383h-618z" />
<glyph unicode="&#xad;" horiz-adv-x="790" d="M113 457v239h565v-239h-565z" />
<glyph unicode="&#xae;" horiz-adv-x="1495" d="M66 682q0 142 51.5 271t140.5 224t216.5 151t273.5 56t273.5 -56t216.5 -151t140.5 -224t51.5 -271t-51.5 -271.5t-140.5 -225t-216.5 -152t-273.5 -56.5t-273.5 56.5t-216.5 152t-140.5 225t-51.5 271.5zM188 682q0 -114 40 -220t111 -188.5t178 -132t231 -49.5 t230.5 49.5t177 132t110 188.5t39.5 220q0 91 -24.5 177.5t-73 160.5t-115 130t-155.5 88t-189 32q-165 0 -295 -84.5t-197.5 -217.5t-67.5 -286zM465 336v690h375q97 0 162 -65.5t65 -157.5q0 -65 -34.5 -118t-94.5 -79l199 -270h-191l-180 248h-145v-248h-156zM621 705 h188q40 0 69 28t29 70t-29 70t-69 28h-188v-196z" />
<glyph unicode="&#xaf;" horiz-adv-x="806" d="M123 1219v124h561v-124h-561z" />
<glyph unicode="&#xb0;" horiz-adv-x="626" d="M92 1163q0 92 64.5 156.5t156.5 64.5t157 -64.5t65 -156.5t-65 -157.5t-157 -65.5t-156.5 65.5t-64.5 157.5zM168 1163q0 -60 42.5 -102.5t102.5 -42.5t103 42.5t43 102.5t-43 103t-103 43t-102.5 -43t-42.5 -103z" />
<glyph unicode="&#xb1;" horiz-adv-x="1202" d="M113 0v184h381v199h-381v209h381v385h215v-385h381v-209h-381v-199h381v-184h-977z" />
<glyph unicode="&#xb2;" horiz-adv-x="1363" d="M0 342v340h340v-340h-340zM0 1024v340h340v-340h-340zM340 0v342h342v-342h-342zM340 682v342h342v-342h340v-340h342v-342h-342v342h-340v340h-342zM682 1024v340h340v-340h-340zM1022 682v342h342v-342h-342z" />
<glyph unicode="&#xb3;" horiz-adv-x="1363" d="M0 342v340h340v-340h-340zM0 1024v340h340v-340h-340zM340 0v342h342v-342h-342zM340 682v342h342v-342h340v-340h342v-342h-342v342h-340v340h-342zM682 1024v340h340v-340h-340zM1022 682v342h342v-342h-342z" />
<glyph unicode="&#xb4;" horiz-adv-x="700" d="M123 1128l188 273h297l-297 -273h-188z" />
<glyph unicode="&#xb5;" horiz-adv-x="1224" d="M133 -332v1329h295v-575q0 -83 39 -130.5t119 -47.5q74 0 137 54t63 128v571h295v-997h-286v150q-47 -69 -139.5 -117.5t-196.5 -48.5h-31v-316h-295z" />
<glyph unicode="&#xb6;" horiz-adv-x="958" d="M41 1049q0 131 92.5 223t222.5 92h418v-1364h-141v1276h-137v-1276h-140v733q-130 0 -222.5 92.5t-92.5 223.5z" />
<glyph unicode="&#xb7;" horiz-adv-x="626" d="M154 455v319h319v-319h-319z" />
<glyph unicode="&#xb8;" horiz-adv-x="778" d="M123 -549l35 115q74 -19 151 -19q76 0 116 28t40 73q0 82 -127 82q-17 0 -71.5 -2.5t-90.5 -3.5l62 276h155q-12 -48 -27 -95t-16 -50q25 2 58 2q115 0 181 -56t66 -157q0 -99 -91.5 -162.5t-233.5 -63.5q-109 0 -207 33z" />
<glyph unicode="&#xb9;" horiz-adv-x="1363" d="M0 342v340h340v-340h-340zM0 1024v340h340v-340h-340zM340 0v342h342v-342h-342zM340 682v342h342v-342h340v-340h342v-342h-342v342h-340v340h-342zM682 1024v340h340v-340h-340zM1022 682v342h342v-342h-342z" />
<glyph unicode="&#xba;" horiz-adv-x="839" d="M72 1038q0 140 99 243t249 103t249 -103t99 -243t-99 -242t-249 -102t-249 102t-99 242zM268 1038q0 -88 41 -140t111 -52t110.5 52t40.5 140q0 89 -40.5 142t-110.5 53t-111 -53.5t-41 -141.5z" />
<glyph unicode="&#xbb;" horiz-adv-x="1290" d="M164 117l358 383l-358 381l125 116l467 -499l-469 -498zM637 117l358 383l-358 381l125 116l467 -499l-467 -498z" />
<glyph unicode="&#xbc;" horiz-adv-x="1363" d="M0 342v340h340v-340h-340zM0 1024v340h340v-340h-340zM340 0v342h342v-342h-342zM340 682v342h342v-342h340v-340h342v-342h-342v342h-340v340h-342zM682 1024v340h340v-340h-340zM1022 682v342h342v-342h-342z" />
<glyph unicode="&#xbd;" horiz-adv-x="1363" d="M0 342v340h340v-340h-340zM0 1024v340h340v-340h-340zM340 0v342h342v-342h-342zM340 682v342h342v-342h340v-340h342v-342h-342v342h-340v340h-342zM682 1024v340h340v-340h-340zM1022 682v342h342v-342h-342z" />
<glyph unicode="&#xbe;" horiz-adv-x="1363" d="M0 342v340h340v-340h-340zM0 1024v340h340v-340h-340zM340 0v342h342v-342h-342zM340 682v342h342v-342h340v-340h342v-342h-342v342h-340v340h-342zM682 1024v340h340v-340h-340zM1022 682v342h342v-342h-342z" />
<glyph unicode="&#xbf;" horiz-adv-x="1189" d="M102 379q0 143 116.5 284t348.5 273l125 -182q-23 -18 -61.5 -48t-58 -45.5t-49 -40.5t-44 -41.5t-33.5 -40.5t-27.5 -45t-15 -47.5t-6.5 -54.5q0 -83 66 -120.5t205 -37.5q184 0 381 56l49 -234q-105 -35 -236.5 -56.5t-228.5 -21.5q-256 0 -393.5 104.5t-137.5 297.5z M449 1044v320h319v-320h-319z" />
<glyph unicode="&#xc0;" horiz-adv-x="1357" d="M20 0l519 1364h282l516 -1364h-301l-104 281h-504l-106 -281h-302zM281 1745h297l188 -272h-188zM502 512h354l-176 545z" />
<glyph unicode="&#xc1;" horiz-adv-x="1357" d="M20 0l519 1364h282l516 -1364h-301l-104 281h-504l-106 -281h-302zM502 512h354l-176 545zM588 1473l188 272h297l-297 -272h-188z" />
<glyph unicode="&#xc2;" horiz-adv-x="1357" d="M20 0l519 1364h282l516 -1364h-301l-104 281h-504l-106 -281h-302zM342 1458l233 277h201l240 -277h-225l-111 133l-113 -133h-225zM502 512h354l-176 545z" />
<glyph unicode="&#xc3;" horiz-adv-x="1357" d="M20 0l519 1364h282l516 -1364h-301l-104 281h-504l-106 -281h-302zM365 1513q18 53 42 96.5t68 80t96 36.5q34 0 70 -15.5t60.5 -33.5t52 -33.5t47.5 -15.5q60 0 98 98l94 -45q-13 -38 -30.5 -72t-42.5 -67.5t-60 -53.5t-74 -20q-34 0 -70 15t-60 33.5t-51.5 33.5 t-47.5 15q-59 0 -98 -99zM502 512h354l-176 545z" />
<glyph unicode="&#xc4;" horiz-adv-x="1357" d="M20 0l519 1364h282l516 -1364h-301l-104 281h-504l-106 -281h-302zM377 1475v213h223v-213h-223zM502 512h354l-176 545zM756 1475v213h225v-213h-225z" />
<glyph unicode="&#xc5;" horiz-adv-x="1357" d="M20 0l519 1364h282l516 -1364h-301l-104 281h-504l-106 -281h-302zM459 1632q0 91 64 155t155 64q92 0 156.5 -64t64.5 -155t-64 -155t-155 -64q-92 0 -156.5 64t-64.5 155zM502 512h354l-176 545zM571 1632q0 -47 29 -81.5t78 -34.5q50 0 79 34.5t29 81.5h2q0 47 -29 82 t-79 35q-51 0 -80 -34.5t-29 -82.5z" />
<glyph unicode="&#xc6;" horiz-adv-x="1869" d="M20 0l519 1364h1208v-264h-791l68 -264h655v-265h-589l77 -307h580v-264h-829l-62 279h-426l-106 -279h-304zM504 512h301l-119 545z" />
<glyph unicode="&#xc7;" horiz-adv-x="1351" d="M82 682q0 145 55.5 273.5t154 223.5t241.5 150t309 55q231 0 397 -59l-68 -254q-143 41 -286 41q-243 0 -369.5 -118t-126.5 -312t126.5 -313t369.5 -119q142 0 286 41l62 -250q-180 -64 -391 -64q-165 0 -307.5 55.5t-241.5 151t-155 224.5t-56 274zM592 -549l35 115 q74 -19 151 -19q76 0 116 28t40 73q0 82 -127 82q-17 0 -71.5 -2.5t-90.5 -3.5l62 276h155q-12 -48 -27 -95t-16 -50q25 2 58 2q115 0 181 -56t66 -157q0 -99 -91.5 -162.5t-233.5 -63.5q-109 0 -207 33z" />
<glyph unicode="&#xc8;" horiz-adv-x="1308" d="M184 0v1364h1002v-264h-694v-264h655v-265h-655v-307h694v-264h-1002zM332 1745h297l188 -272h-188z" />
<glyph unicode="&#xc9;" horiz-adv-x="1308" d="M184 0v1364h1002v-264h-694v-264h655v-265h-655v-307h694v-264h-1002zM555 1473l188 272h297l-297 -272h-188z" />
<glyph unicode="&#xca;" horiz-adv-x="1308" d="M184 0v1364h1002v-264h-694v-264h655v-265h-655v-307h694v-264h-1002zM324 1458l233 277h201l239 -277h-225l-110 133l-113 -133h-225z" />
<glyph unicode="&#xcb;" horiz-adv-x="1308" d="M184 0v1364h1002v-264h-694v-264h655v-265h-655v-307h694v-264h-1002zM381 1475v213h223v-213h-223zM760 1475v213h225v-213h-225z" />
<glyph unicode="&#xcc;" horiz-adv-x="696" d="M-23 1745h297l189 -272h-189zM195 0v1364h307v-1364h-307z" />
<glyph unicode="&#xcd;" horiz-adv-x="696" d="M195 0v1364h307v-1364h-307zM231 1473l189 272h297l-297 -272h-189z" />
<glyph unicode="&#xce;" horiz-adv-x="696" d="M12 1458l234 277h200l238 -277h-225l-111 133l-112 -133h-224zM195 0v1364h307v-1364h-307z" />
<glyph unicode="&#xcf;" horiz-adv-x="696" d="M47 1475v213h223v-213h-223zM195 0v1364h307v-1364h-307zM426 1475v213h223v-213h-223z" />
<glyph unicode="&#xd0;" horiz-adv-x="1497" d="M82 588v188h160v588h319q194 0 357.5 -50.5t277 -140.5t177 -216.5t63.5 -274.5t-63.5 -274.5t-177 -216.5t-277 -140.5t-357.5 -50.5h-319v588h-160zM549 272h67q104 0 192 23.5t158 71.5t110 128.5t40 186.5t-40 186.5t-110 128.5t-158 71.5t-192 23.5h-67v-316h266 v-188h-266v-316z" />
<glyph unicode="&#xd1;" horiz-adv-x="1630" d="M184 0v1364h299l660 -903v903h303v-1364h-299l-660 901v-901h-303zM520 1513q29 85 81.5 149t125.5 64q44 0 88 -24.5t80.5 -49t60.5 -24.5q61 0 99 98l94 -45q-17 -52 -41.5 -96.5t-69 -80.5t-96.5 -36q-34 0 -69 15t-59.5 33.5t-52 33.5t-48.5 15q-56 0 -99 -99z" />
<glyph unicode="&#xd2;" d="M82 680q0 192 91.5 353.5t251.5 256t351 94.5q143 0 272.5 -55.5t222.5 -150t147.5 -225t54.5 -273.5q0 -192 -92.5 -353.5t-253 -255.5t-351.5 -94q-143 0 -272 55.5t-221.5 149.5t-146.5 224t-54 274zM383 1745h297l188 -272h-188zM389 680q0 -191 102.5 -310.5 t284.5 -119.5t285.5 119.5t103.5 310.5t-103.5 311.5t-285.5 120.5q-181 0 -284 -120.5t-103 -311.5z" />
<glyph unicode="&#xd3;" d="M82 680q0 192 91.5 353.5t251.5 256t351 94.5q143 0 272.5 -55.5t222.5 -150t147.5 -225t54.5 -273.5q0 -192 -92.5 -353.5t-253 -255.5t-351.5 -94q-143 0 -272 55.5t-221.5 149.5t-146.5 224t-54 274zM389 680q0 -191 102.5 -310.5t284.5 -119.5t285.5 119.5 t103.5 310.5t-103.5 311.5t-285.5 120.5q-181 0 -284 -120.5t-103 -311.5zM688 1473l189 272h297l-297 -272h-189z" />
<glyph unicode="&#xd4;" d="M82 680q0 192 91.5 353.5t251.5 256t351 94.5q143 0 272.5 -55.5t222.5 -150t147.5 -225t54.5 -273.5q0 -192 -92.5 -353.5t-253 -255.5t-351.5 -94q-143 0 -272 55.5t-221.5 149.5t-146.5 224t-54 274zM389 680q0 -191 102.5 -310.5t284.5 -119.5t285.5 119.5 t103.5 310.5t-103.5 311.5t-285.5 120.5q-181 0 -284 -120.5t-103 -311.5zM440 1458l234 277h200l240 -277h-225l-111 133l-112 -133h-226z" />
<glyph unicode="&#xd5;" d="M82 680q0 192 91.5 353.5t251.5 256t351 94.5q143 0 272.5 -55.5t222.5 -150t147.5 -225t54.5 -273.5q0 -192 -92.5 -353.5t-253 -255.5t-351.5 -94q-143 0 -272 55.5t-221.5 149.5t-146.5 224t-54 274zM389 680q0 -191 102.5 -310.5t284.5 -119.5t285.5 119.5 t103.5 310.5t-103.5 311.5t-285.5 120.5q-181 0 -284 -120.5t-103 -311.5zM463 1513q13 38 30.5 72t42.5 67.5t60 53.5t74 20q44 0 88 -24.5t80.5 -49t60.5 -24.5q60 0 98 98l95 -45q-13 -38 -30.5 -72t-42.5 -67.5t-60 -53.5t-74 -20q-34 0 -70 15t-60.5 33.5t-52 33.5 t-47.5 15q-59 0 -98 -99z" />
<glyph unicode="&#xd6;" d="M82 680q0 192 91.5 353.5t251.5 256t351 94.5q143 0 272.5 -55.5t222.5 -150t147.5 -225t54.5 -273.5q0 -192 -92.5 -353.5t-253 -255.5t-351.5 -94q-143 0 -272 55.5t-221.5 149.5t-146.5 224t-54 274zM389 680q0 -191 102.5 -310.5t284.5 -119.5t285.5 119.5 t103.5 310.5t-103.5 311.5t-285.5 120.5q-181 0 -284 -120.5t-103 -311.5zM475 1475v213h223v-213h-223zM854 1475v213h225v-213h-225z" />
<glyph unicode="&#xd7;" horiz-adv-x="1026" d="M92 221l268 268l-268 271l152 151l268 -268l270 268l152 -151l-268 -271l268 -268l-152 -151l-270 268l-268 -268z" />
<glyph unicode="&#xd8;" d="M82 55l166 168q-79 94 -122.5 212t-43.5 247q0 192 91.5 353t251.5 255t351 94q259 0 453 -167l164 167l80 -77l-166 -168q166 -200 166 -457q0 -192 -92.5 -354t-253 -256.5t-351.5 -94.5q-257 0 -450 166l-164 -166zM389 682q0 -148 62 -254l583 592q-102 92 -258 92 q-182 0 -284.5 -119.5t-102.5 -310.5zM520 342q102 -92 256 -92q182 0 285.5 120.5t103.5 311.5q0 146 -61 250z" />
<glyph unicode="&#xd9;" horiz-adv-x="1556" d="M164 567v797h307v-797q0 -145 85.5 -230t221.5 -85t221.5 85t85.5 230v797h308v-797q0 -118 -44.5 -225t-123.5 -188t-195 -129t-252 -48q-180 0 -322 82t-217 216t-75 292zM391 1745h297l189 -272h-189z" />
<glyph unicode="&#xda;" horiz-adv-x="1556" d="M164 567v797h307v-797q0 -145 85.5 -230t221.5 -85t221.5 85t85.5 230v797h308v-797q0 -118 -44.5 -225t-123.5 -188t-195 -129t-252 -48q-180 0 -322 82t-217 216t-75 292zM682 1473l188 272h297l-297 -272h-188z" />
<glyph unicode="&#xdb;" horiz-adv-x="1556" d="M164 567v797h307v-797q0 -145 85.5 -230t221.5 -85t221.5 85t85.5 230v797h308v-797q0 -118 -44.5 -225t-123.5 -188t-195 -129t-252 -48q-180 0 -322 82t-217 216t-75 292zM442 1458l234 277h201l237 -277h-225l-111 133l-112 -133h-224z" />
<glyph unicode="&#xdc;" horiz-adv-x="1556" d="M164 567v797h307v-797q0 -145 85.5 -230t221.5 -85t221.5 85t85.5 230v797h308v-797q0 -118 -44.5 -225t-123.5 -188t-195 -129t-252 -48q-180 0 -322 82t-217 216t-75 292zM477 1475v213h223v-213h-223zM856 1475v213h223v-213h-223z" />
<glyph unicode="&#xdd;" horiz-adv-x="1234" d="M0 1364h307l311 -557l310 557h307l-463 -827v-537h-307v537zM565 1473l189 272h297l-297 -272h-189z" />
<glyph unicode="&#xde;" horiz-adv-x="1404" d="M184 0v1364h308v-217h409q133 0 239.5 -61.5t165 -163.5t58.5 -224q0 -187 -131.5 -318.5t-331.5 -131.5h-409v-248h-308zM492 494h360q80 0 138.5 59.5t58.5 144.5t-58 143t-139 58h-360v-405z" />
<glyph unicode="&#xdf;" horiz-adv-x="1325" d="M82 784v191h129v61q0 176 118.5 277.5t313.5 101.5q108 0 197 -30t144.5 -80.5t85.5 -113t30 -130.5q0 -64 -20.5 -117t-50 -87.5t-59.5 -62.5t-50.5 -54t-20.5 -50q0 -30 17 -49t67 -45q75 -37 116.5 -63t78 -62.5t51 -80.5t14.5 -105q0 -141 -107.5 -224.5 t-297.5 -83.5q-54 0 -129 15.5t-129 40.5l51 200q101 -38 203 -38q61 0 92.5 21.5t31.5 53.5q0 35 -25 59.5t-104 65.5q-134 69 -179.5 135t-45.5 160q0 41 20.5 79.5t50 69t59.5 60.5t50.5 67.5t20.5 77.5q0 70 -40.5 107t-117.5 37q-65 0 -103 -37.5t-38 -103.5v-1047 h-295v784h-129z" />
<glyph unicode="&#xe0;" horiz-adv-x="1077" d="M72 281q0 144 84 219t239 75h287v74q0 78 -47.5 108.5t-175.5 30.5q-137 0 -307 -20l-23 213q194 35 358 35q232 0 360 -92.5t128 -284.5v-639h-279v106q-101 -122 -288 -122q-147 0 -241.5 85.5t-94.5 211.5zM125 1401h297l188 -273h-188zM365 287q0 -103 137 -103 q82 0 131 51t49 132v26h-180q-137 0 -137 -106z" />
<glyph unicode="&#xe1;" horiz-adv-x="1077" d="M72 281q0 144 84 219t239 75h287v74q0 78 -47.5 108.5t-175.5 30.5q-137 0 -307 -20l-23 213q194 35 358 35q232 0 360 -92.5t128 -284.5v-639h-279v106q-101 -122 -288 -122q-147 0 -241.5 85.5t-94.5 211.5zM365 287q0 -103 137 -103q82 0 131 51t49 132v26h-180 q-137 0 -137 -106zM377 1128l188 273h297l-297 -273h-188z" />
<glyph unicode="&#xe2;" horiz-adv-x="1077" d="M72 281q0 144 84 219t239 75h287v74q0 78 -47.5 108.5t-175.5 30.5q-137 0 -307 -20l-23 213q194 35 358 35q232 0 360 -92.5t128 -284.5v-639h-279v106q-101 -122 -288 -122q-147 0 -241.5 85.5t-94.5 211.5zM213 1124l233 277h201l238 -277h-226l-110 133l-113 -133 h-223zM365 287q0 -103 137 -103q82 0 131 51t49 132v26h-180q-137 0 -137 -106z" />
<glyph unicode="&#xe3;" horiz-adv-x="1077" d="M72 281q0 144 84 219t239 75h287v74q0 78 -47.5 108.5t-175.5 30.5q-137 0 -307 -20l-23 213q194 35 358 35q232 0 360 -92.5t128 -284.5v-639h-279v106q-101 -122 -288 -122q-147 0 -241.5 85.5t-94.5 211.5zM236 1159q18 53 42 96.5t68 80t96 36.5q34 0 70 -15.5 t60.5 -33.5t52 -33.5t47.5 -15.5q60 0 98 98l94 -45q-13 -38 -30.5 -72t-42.5 -67.5t-60 -53.5t-74 -20q-44 0 -88 24t-80.5 48t-60.5 24q-60 0 -98 -98zM365 287q0 -103 137 -103q82 0 131 51t49 132v26h-180q-137 0 -137 -106z" />
<glyph unicode="&#xe4;" horiz-adv-x="1077" d="M72 281q0 144 84 219t239 75h287v74q0 78 -47.5 108.5t-175.5 30.5q-137 0 -307 -20l-23 213q194 35 358 35q232 0 360 -92.5t128 -284.5v-639h-279v106q-101 -122 -288 -122q-147 0 -241.5 85.5t-94.5 211.5zM231 1147v213h224v-213h-224zM365 287q0 -103 137 -103 q82 0 131 51t49 132v26h-180q-137 0 -137 -106zM610 1147v213h224v-213h-224z" />
<glyph unicode="&#xe5;" horiz-adv-x="1077" d="M72 281q0 144 84 219t239 75h287v74q0 78 -47.5 108.5t-175.5 30.5q-137 0 -307 -20l-23 213q194 35 358 35q232 0 360 -92.5t128 -284.5v-639h-279v106q-101 -122 -288 -122q-147 0 -241.5 85.5t-94.5 211.5zM289 1321q0 91 64 155t155 64t155 -64t64 -155t-64 -155 t-155 -64t-155 64t-64 155zM365 287q0 -103 137 -103q82 0 131 51t49 132v26h-180q-137 0 -137 -106zM401 1321q0 -47 29 -82t78 -35t78.5 35t29.5 82t-29 82t-79 35t-78.5 -34.5t-28.5 -82.5z" />
<glyph unicode="&#xe6;" horiz-adv-x="1726" d="M72 295q0 144 84 219.5t239 75.5h287v59q0 78 -47.5 108.5t-175.5 30.5q-137 0 -307 -20l-23 213q194 35 358 35q254 0 375 -109q131 109 314 109q217 0 345 -142.5t128 -381.5v-78h-682q0 -93 74.5 -149t220.5 -56q140 0 280 39l51 -209q-149 -55 -336 -55 q-267 0 -421 135q-125 -135 -351 -135q-188 0 -300.5 90.5t-112.5 220.5zM367 295q0 -52 34 -81.5t101 -29.5q82 0 131 51t49 132v39h-180q-135 0 -135 -111zM969 596h403q-9 93 -59 146t-137 53q-82 0 -138 -51t-69 -148z" />
<glyph unicode="&#xe7;" horiz-adv-x="995" d="M66 500q0 221 157 368.5t406 147.5q141 0 264 -51l-47 -209q-101 28 -193 28q-146 0 -220.5 -77t-74.5 -207t75 -208.5t220 -78.5q81 0 193 31l47 -209q-125 -51 -264 -51q-249 0 -406 147.5t-157 368.5zM371 -549l35 115q74 -19 151 -19q76 0 116 28t40 73q0 82 -127 82 q-17 0 -71.5 -2.5t-90.5 -3.5l61 276h156q-12 -48 -27 -95t-16 -50q25 2 57 2q115 0 181.5 -56.5t66.5 -156.5q0 -99 -91.5 -162.5t-233.5 -63.5q-109 0 -207 33z" />
<glyph unicode="&#xe8;" horiz-adv-x="1110" d="M66 500q0 102 34.5 195.5t96.5 164.5t156 113.5t206 42.5q217 0 345 -142.5t128 -381.5v-78h-682q0 -93 74.5 -149t220.5 -56q141 0 281 39l51 -209q-149 -55 -336 -55q-274 0 -424.5 139.5t-150.5 376.5zM160 1401h297l188 -273h-188zM352 596h404q-9 93 -59.5 146 t-137.5 53q-82 0 -138 -51t-69 -148z" />
<glyph unicode="&#xe9;" horiz-adv-x="1110" d="M66 500q0 102 34.5 195.5t96.5 164.5t156 113.5t206 42.5q217 0 345 -142.5t128 -381.5v-78h-682q0 -93 74.5 -149t220.5 -56q141 0 281 39l51 -209q-149 -55 -336 -55q-274 0 -424.5 139.5t-150.5 376.5zM352 596h404q-9 93 -59.5 146t-137.5 53q-82 0 -138 -51 t-69 -148zM455 1128l188 273h297l-297 -273h-188z" />
<glyph unicode="&#xea;" horiz-adv-x="1110" d="M66 500q0 102 34.5 195.5t96.5 164.5t156 113.5t206 42.5q217 0 345 -142.5t128 -381.5v-78h-682q0 -93 74.5 -149t220.5 -56q141 0 281 39l51 -209q-149 -55 -336 -55q-274 0 -424.5 139.5t-150.5 376.5zM221 1124l234 277h200l238 -277h-225l-111 133l-113 -133h-223z M352 596h404q-9 93 -59.5 146t-137.5 53q-82 0 -138 -51t-69 -148z" />
<glyph unicode="&#xeb;" horiz-adv-x="1110" d="M66 500q0 102 34.5 195.5t96.5 164.5t156 113.5t206 42.5q217 0 345 -142.5t128 -381.5v-78h-682q0 -93 74.5 -149t220.5 -56q141 0 281 39l51 -209q-149 -55 -336 -55q-274 0 -424.5 139.5t-150.5 376.5zM254 1147v213h223v-213h-223zM352 596h404q-9 93 -59.5 146 t-137.5 53q-82 0 -138 -51t-69 -148zM633 1147v213h223v-213h-223z" />
<glyph unicode="&#xec;" horiz-adv-x="579" d="M-70 1401h297l189 -273h-189zM143 0v997h293v-997h-293z" />
<glyph unicode="&#xed;" horiz-adv-x="579" d="M143 0v997h293v-997h-293zM164 1128l188 273h297l-297 -273h-188z" />
<glyph unicode="&#xee;" horiz-adv-x="579" d="M-47 1124l233 277h201l238 -277h-226l-110 133l-113 -133h-223zM143 0v997h293v-997h-293z" />
<glyph unicode="&#xef;" horiz-adv-x="579" d="M-14 1147v213h223v-213h-223zM143 0v997h293v-997h-293zM365 1147v213h223v-213h-223z" />
<glyph unicode="&#xf0;" horiz-adv-x="1165" d="M66 500q0 100 29 192t82 164.5t136 116t183 43.5q88 0 162 -41t122 -113q-22 129 -92 246l-84 -68l-37 47l90 70q-69 100 -192 207h278q35 -28 80 -76l90 72l37 -47l-88 -68q102 -126 161.5 -296.5t59.5 -354.5q0 -124 -30.5 -230.5t-92.5 -193t-167 -136.5t-242 -50 q-114 0 -208 45t-153.5 119t-91.5 165t-32 187zM358 500q0 -125 56 -208t157 -83q96 0 156.5 80.5t60.5 210.5q0 131 -59 209.5t-158 78.5q-102 0 -157.5 -81.5t-55.5 -206.5z" />
<glyph unicode="&#xf1;" horiz-adv-x="1222" d="M143 0v997h285v-149q47 69 140.5 118.5t197.5 49.5q163 0 243.5 -104.5t80.5 -288.5v-623h-295v575q0 84 -39 132.5t-119 48.5q-73 0 -137 -55.5t-64 -129.5v-571h-293zM315 1159q13 38 30.5 72t42.5 67.5t60 53.5t74 20q34 0 70 -15.5t60.5 -33.5t52 -33.5t47.5 -15.5 q60 0 98 98l94 -45q-13 -38 -30.5 -72t-42.5 -67.5t-60 -53.5t-74 -20q-44 0 -88 24t-80.5 48t-60.5 24q-60 0 -98 -98z" />
<glyph unicode="&#xf2;" horiz-adv-x="1171" d="M66 500q0 136 65 253.5t185.5 190t269.5 72.5t269.5 -72.5t185.5 -190t65 -253.5t-65 -253.5t-185.5 -190t-269.5 -72.5t-269.5 72.5t-185.5 190t-65 253.5zM170 1401h297l188 -273h-188zM360 500q0 -132 60.5 -211.5t165.5 -79.5t165 79.5t60 211.5t-60 211.5t-165 79.5 t-165.5 -79.5t-60.5 -211.5z" />
<glyph unicode="&#xf3;" horiz-adv-x="1171" d="M66 500q0 136 65 253.5t185.5 190t269.5 72.5t269.5 -72.5t185.5 -190t65 -253.5t-65 -253.5t-185.5 -190t-269.5 -72.5t-269.5 72.5t-185.5 190t-65 253.5zM360 500q0 -132 60.5 -211.5t165.5 -79.5t165 79.5t60 211.5t-60 211.5t-165 79.5t-165.5 -79.5t-60.5 -211.5z M492 1128l188 273h297l-297 -273h-188z" />
<glyph unicode="&#xf4;" horiz-adv-x="1171" d="M66 500q0 136 65 253.5t185.5 190t269.5 72.5t269.5 -72.5t185.5 -190t65 -253.5t-65 -253.5t-185.5 -190t-269.5 -72.5t-269.5 72.5t-185.5 190t-65 253.5zM256 1124l233 277h201l238 -277h-226l-110 133l-113 -133h-223zM360 500q0 -132 60.5 -211.5t165.5 -79.5 t165 79.5t60 211.5t-60 211.5t-165 79.5t-165.5 -79.5t-60.5 -211.5z" />
<glyph unicode="&#xf5;" horiz-adv-x="1171" d="M66 500q0 136 65 253.5t185.5 190t269.5 72.5t269.5 -72.5t185.5 -190t65 -253.5t-65 -253.5t-185.5 -190t-269.5 -72.5t-269.5 72.5t-185.5 190t-65 253.5zM266 1159q13 38 30.5 72t42.5 67.5t60 53.5t74 20q44 0 88 -24.5t80.5 -49t60.5 -24.5q61 0 99 98l94 -45 q-13 -38 -30.5 -72t-42.5 -67.5t-60 -53.5t-74 -20q-44 0 -88 24t-80.5 48t-60.5 24q-61 0 -99 -98zM360 500q0 -132 60.5 -211.5t165.5 -79.5t165 79.5t60 211.5t-60 211.5t-165 79.5t-165.5 -79.5t-60.5 -211.5z" />
<glyph unicode="&#xf6;" horiz-adv-x="1171" d="M66 500q0 136 65 253.5t185.5 190t269.5 72.5t269.5 -72.5t185.5 -190t65 -253.5t-65 -253.5t-185.5 -190t-269.5 -72.5t-269.5 72.5t-185.5 190t-65 253.5zM291 1147v213h223v-213h-223zM360 500q0 -132 60.5 -211.5t165.5 -79.5t165 79.5t60 211.5t-60 211.5t-165 79.5 t-165.5 -79.5t-60.5 -211.5zM670 1147v213h223v-213h-223z" />
<glyph unicode="&#xf7;" horiz-adv-x="1181" d="M102 391v197h977v-197h-977zM442 141q0 61 43 104.5t105 43.5t105.5 -43.5t43.5 -104.5t-43.5 -104t-105.5 -43t-105 43t-43 104zM442 838q0 61 43 104t105 43t105.5 -43t43.5 -104q0 -62 -44 -106t-105 -44t-104.5 44t-43.5 106z" />
<glyph unicode="&#xf8;" horiz-adv-x="1171" d="M66 43l122 121q-122 144 -122 336q0 136 65 253.5t185.5 190t269.5 72.5q198 0 340 -123l123 123l57 -60l-123 -120q123 -145 123 -336q0 -136 -65 -253.5t-185.5 -190t-269.5 -72.5q-199 0 -338 120l-123 -120zM360 500q0 -77 23 -144l362 361q-59 71 -159 71 q-105 0 -165.5 -78t-60.5 -210zM426 283q61 -74 160 -74q105 0 165 79.5t60 211.5q0 74 -23 141z" />
<glyph unicode="&#xf9;" horiz-adv-x="1224" d="M133 375v622h295v-575q0 -83 39 -130.5t119 -47.5q74 0 137 54t63 128v571h295v-997h-286v150q-47 -69 -139.5 -117.5t-196.5 -48.5q-164 0 -245 104t-81 287zM207 1401h297l188 -273h-188z" />
<glyph unicode="&#xfa;" horiz-adv-x="1224" d="M133 375v622h295v-575q0 -83 39 -130.5t119 -47.5q74 0 137 54t63 128v571h295v-997h-286v150q-47 -69 -139.5 -117.5t-196.5 -48.5q-164 0 -245 104t-81 287zM504 1128l188 273h297l-297 -273h-188z" />
<glyph unicode="&#xfb;" horiz-adv-x="1224" d="M133 375v622h295v-575q0 -83 39 -130.5t119 -47.5q74 0 137 54t63 128v571h295v-997h-286v150q-47 -69 -139.5 -117.5t-196.5 -48.5q-164 0 -245 104t-81 287zM268 1124l234 277h200l238 -277h-225l-111 133l-112 -133h-224z" />
<glyph unicode="&#xfc;" horiz-adv-x="1224" d="M133 375v622h295v-575q0 -83 39 -130.5t119 -47.5q74 0 137 54t63 128v571h295v-997h-286v150q-47 -69 -139.5 -117.5t-196.5 -48.5q-164 0 -245 104t-81 287zM305 1147v213h223v-213h-223zM684 1147v213h223v-213h-223z" />
<glyph unicode="&#xfd;" horiz-adv-x="1038" d="M4 997h285l229 -680l221 680h285l-485 -1331h-285l121 336zM414 1128l188 273h297l-297 -273h-188z" />
<glyph unicode="&#xfe;" horiz-adv-x="1226" d="M143 -332v1696h295v-498q57 68 133.5 109t159.5 41q100 0 183 -45t136 -119t82 -165t29 -187q0 -100 -29 -192t-82 -164.5t-136 -116t-183 -43.5q-176 0 -293 145v-461h-295zM438 500q0 -131 59 -211t158 -80q101 0 157 83t56 208t-55.5 206.5t-157.5 81.5 q-96 0 -156.5 -79t-60.5 -209z" />
<glyph unicode="&#xff;" horiz-adv-x="1038" d="M4 997h285l229 -680l221 680h285l-485 -1331h-285l121 336zM223 1147v213h223v-213h-223zM602 1147v213h223v-213h-223z" />
<glyph unicode="&#x152;" horiz-adv-x="2076" d="M82 682q0 191 92.5 348t252 245.5t351.5 88.5h1176v-264h-694v-264h657v-265h-657v-307h694v-264h-1176q-192 0 -351.5 88.5t-252 245.5t-92.5 348zM389 682q0 -188 102.5 -299t286.5 -111h174v820h-174q-184 0 -286.5 -111t-102.5 -299z" />
<glyph unicode="&#x153;" horiz-adv-x="1857" d="M66 500q0 136 65 253.5t185.5 190t269.5 72.5q218 0 366 -148q138 148 355 148t345 -142.5t128 -381.5v-78h-684q0 -93 74.5 -149t220.5 -56q142 0 282 39l51 -209q-149 -55 -338 -55q-281 0 -434 147q-150 -147 -366 -147q-149 0 -269.5 72.5t-185.5 190t-65 253.5z M358 500q0 -132 61.5 -211.5t166.5 -79.5t165 79.5t60 211.5t-60 211.5t-165 79.5t-166.5 -79.5t-61.5 -211.5zM1100 596h401q-9 94 -58 146.5t-136 52.5q-82 0 -138 -51t-69 -148z" />
<glyph unicode="&#x178;" horiz-adv-x="1234" d="M0 1364h307l311 -557l310 557h307l-463 -827v-537h-307v537zM315 1475v213h224v-213h-224zM694 1475v213h226v-213h-226z" />
<glyph unicode="&#x2c6;" horiz-adv-x="917" d="M123 1124l233 277h201l238 -277h-226l-110 133l-113 -133h-223z" />
<glyph unicode="&#x2dc;" horiz-adv-x="874" d="M123 1159q13 38 30.5 72t42.5 67.5t60 53.5t74 20q44 0 88 -24.5t80.5 -49t60.5 -24.5q60 0 98 98l95 -45q-13 -38 -30.5 -72t-42.5 -67.5t-60 -53.5t-74 -20q-34 0 -70 15t-60.5 33t-52 33t-47.5 15q-60 0 -98 -98z" />
<glyph unicode="&#x2000;" horiz-adv-x="925" />
<glyph unicode="&#x2001;" horiz-adv-x="1851" />
<glyph unicode="&#x2002;" horiz-adv-x="925" />
<glyph unicode="&#x2003;" horiz-adv-x="1851" />
<glyph unicode="&#x2004;" horiz-adv-x="617" />
<glyph unicode="&#x2005;" horiz-adv-x="462" />
<glyph unicode="&#x2006;" horiz-adv-x="308" />
<glyph unicode="&#x2007;" horiz-adv-x="308" />
<glyph unicode="&#x2008;" horiz-adv-x="231" />
<glyph unicode="&#x2009;" horiz-adv-x="370" />
<glyph unicode="&#x200a;" horiz-adv-x="102" />
<glyph unicode="&#x2010;" horiz-adv-x="790" d="M113 457v239h565v-239h-565z" />
<glyph unicode="&#x2011;" horiz-adv-x="790" d="M113 457v239h565v-239h-565z" />
<glyph unicode="&#x2012;" horiz-adv-x="790" d="M113 457v239h565v-239h-565z" />
<glyph unicode="&#x2013;" horiz-adv-x="1181" d="M113 457v239h956v-239h-956z" />
<glyph unicode="&#x2014;" horiz-adv-x="1640" d="M113 457v239h1415v-239h-1415z" />
<glyph unicode="&#x2018;" horiz-adv-x="606" d="M154 702v320l165 342h136l-138 -342h156v-320h-319z" />
<glyph unicode="&#x2019;" horiz-adv-x="606" d="M133 1044v320h320v-320l-166 -342h-137l139 342h-156z" />
<glyph unicode="&#x201a;" horiz-adv-x="608" d="M133 0v319h322v-319l-168 -342h-135l137 342h-156z" />
<glyph unicode="&#x201c;" horiz-adv-x="1089" d="M154 702v320l165 342h138l-138 -342h154v-320h-319zM637 702v320l166 342h135l-137 -342h155v-320h-319z" />
<glyph unicode="&#x201d;" horiz-adv-x="1087" d="M133 1044v320h320v-320l-166 -342h-137l137 342h-154zM614 1044v320h320v-320l-166 -342h-137l139 342h-156z" />
<glyph unicode="&#x201e;" horiz-adv-x="1087" d="M133 0v319h320v-319l-166 -342h-137l137 342h-154zM614 0v319h320v-319l-166 -342h-137l139 342h-156z" />
<glyph unicode="&#x2022;" horiz-adv-x="628" d="M92 729q0 92 64.5 157.5t156.5 65.5t158 -65.5t66 -157.5t-65.5 -156.5t-158.5 -64.5q-92 0 -156.5 64.5t-64.5 156.5z" />
<glyph unicode="&#x2026;" horiz-adv-x="1875" d="M154 0v319h319v-319h-319zM778 0v319h320v-319h-320zM1403 0v319h319v-319h-319z" />
<glyph unicode="&#x202f;" horiz-adv-x="370" />
<glyph unicode="&#x2039;" horiz-adv-x="817" d="M61 498l467 499l125 -116l-358 -381l358 -383l-125 -117z" />
<glyph unicode="&#x203a;" horiz-adv-x="817" d="M164 117l358 383l-358 381l125 116l467 -499l-467 -498z" />
<glyph unicode="&#x205f;" horiz-adv-x="462" />
<glyph unicode="&#x20ac;" horiz-adv-x="1470" d="M41 489v127h164q-2 20 -2 66q0 39 2 59h-164v125h186q63 230 261 374t473 144q122 0 203.5 -12t193.5 -47l-43 -256q-165 43 -311 43q-178 0 -294 -65.5t-165 -180.5h344v-125h-375q-4 -40 -4 -59q0 -26 4 -66h375v-127h-340q52 -112 166 -175.5t289 -63.5q140 0 311 43 l39 -252q-195 -64 -393 -64q-272 0 -469.5 142.5t-262.5 369.5h-188z" />
<glyph unicode="&#x2122;" horiz-adv-x="1460" d="M51 1241v123h549v-123h-203v-500h-141v500h-205zM725 741v623h129l199 -334l196 334h129v-623h-133v375l-153 -260h-76l-158 260v-375h-133z" />
<glyph unicode="&#xe000;" horiz-adv-x="993" d="M0 0v993h993v-993h-993z" />
<glyph unicode="&#xfb01;" horiz-adv-x="1353" d="M61 784v193h129v59q0 182 86.5 280.5t258.5 98.5q107 0 219 -31l-33 -206q-54 10 -115 10q-121 0 -121 -141v-70h181v-193h-181v-784h-295v784h-129zM918 0v997h292v-997h-292zM918 1163v252h292v-252h-292z" />
<glyph unicode="&#xfb02;" horiz-adv-x="1454" d="M61 784v193h129v59q0 182 86.5 280.5t258.5 98.5q107 0 219 -31l-33 -206q-54 10 -115 10q-121 0 -121 -141v-70h181v-193h-181v-784h-295v784h-129zM881 324v1040h293v-1002q0 -85 21.5 -116t86.5 -31t90 4v-227q-78 -10 -147 -10q-155 0 -249.5 85.5t-94.5 256.5z" />
</font>
</defs>
</svg>
