<?xml version="1.0" standalone="no"?>
<!DOCTYPE svg PUBLIC "-//W3C//DTD SVG 1.1//EN" "http://www.w3.org/Graphics/SVG/1.1/DTD/svg11.dtd" >
<svg xmlns="http://www.w3.org/2000/svg">
<metadata></metadata>
<defs>
<font id="locatorultralight" horiz-adv-x="1259" >
<font-face units-per-em="2048" ascent="1638" descent="-410" />
<missing-glyph horiz-adv-x="450" />
<glyph horiz-adv-x="2048" />
<glyph horiz-adv-x="2048" />
<glyph unicode="&#xd;" horiz-adv-x="2048" />
<glyph unicode=" "  horiz-adv-x="450" />
<glyph unicode="&#x09;" horiz-adv-x="450" />
<glyph unicode="&#xa0;" horiz-adv-x="450" />
<glyph unicode="!" horiz-adv-x="516" d="M209 0v193h98v-193h-98zM217 836v528h80v-528l-21 -547h-38z" />
<glyph unicode="&#x22;" horiz-adv-x="665" d="M188 928v436h68v-436h-68zM410 928v436h67v-436h-67z" />
<glyph unicode="#" horiz-adv-x="1320" d="M106 494l13 51h282l72 315h-283l13 51h282l105 453h59l-104 -453h375l104 453h59l-104 -453h256l-10 -51h-256l-74 -315h256l-12 -51h-256l-115 -494h-57l112 494h-374l-115 -494h-60l115 494h-283zM461 545h375l73 315h-377z" />
<glyph unicode="$" horiz-adv-x="1187" d="M137 80l17 51q257 -100 481 -100q179 0 281 74.5t102 199.5q0 113 -93 195.5t-335 187.5q-166 71 -254 132.5t-123 128t-35 163.5q0 274 420 277v200h66v-200q202 -10 376 -68l-12 -49q-232 61 -410 61q-200 0 -290 -51.5t-90 -175.5q0 -54 13.5 -96t38 -75t74 -66.5 t105 -62t147.5 -69.5q88 -39 145.5 -67t115 -61.5t91.5 -63.5t62 -67t39.5 -78.5t11.5 -92.5q0 -142 -108.5 -234t-310.5 -98v-182h-66v182q-115 4 -246 35t-213 70z" />
<glyph unicode="%" horiz-adv-x="1671" d="M106 1038q0 83 35 160.5t107.5 131.5t167.5 54t167.5 -54t107 -131.5t34.5 -160.5t-34.5 -160t-107 -130.5t-167.5 -53.5t-167.5 53.5t-107.5 130.5t-35 160zM170 1038q0 -117 66.5 -202.5t179.5 -85.5t179.5 85.5t66.5 202.5q0 118 -66.5 204.5t-179.5 86.5 t-179.5 -86.5t-66.5 -204.5zM432 0l715 1364h61l-716 -1364h-60zM913 326q0 83 35 160t107.5 130.5t167.5 53.5t168 -53.5t108 -130.5t35 -160t-35 -159.5t-108 -129.5t-168 -53t-167.5 53t-107.5 129.5t-35 159.5zM977 326q0 -117 66.5 -203t179.5 -86t180 86t67 203 t-67 202.5t-180 85.5t-179.5 -85.5t-66.5 -202.5z" />
<glyph unicode="&#x26;" horiz-adv-x="1290" d="M127 336q0 145 79.5 258t270.5 215q-89 128 -119 195t-30 141q0 109 68 174t182 65q109 0 174 -69t65 -172q0 -101 -63.5 -193t-188.5 -162l379 -507q73 95 114 187.5t79 229.5l51 -14q-74 -284 -209 -451l174 -233h-80l-135 182q-185 -205 -428 -205q-97 0 -183 41 t-143 124.5t-57 193.5zM190 340q0 -132 87.5 -217.5t244.5 -85.5q212 0 379 194q-345 469 -387 527l-2 2q-168 -84 -245 -184t-77 -236zM387 1145q0 -49 24.5 -108t49.5 -97.5t71 -101.5q224 128 224 303q0 74 -48 130t-135 56q-90 0 -138 -50t-48 -132z" />
<glyph unicode="'" horiz-adv-x="444" d="M188 928v436h68v-436h-68z" />
<glyph unicode="(" horiz-adv-x="651" d="M188 623q0 273 80.5 498t235.5 440l51 -35q-156 -222 -227.5 -443t-71.5 -460t71.5 -460.5t227.5 -443.5l-51 -34q-155 215 -235.5 440t-80.5 498z" />
<glyph unicode=")" horiz-adv-x="651" d="M96 -281q156 222 227.5 443.5t71.5 460.5t-71.5 460t-227.5 443l51 35q155 -215 235.5 -440t80.5 -498t-80.5 -498t-235.5 -440z" />
<glyph unicode="*" horiz-adv-x="856" d="M106 895l287 127l-287 127l41 74l265 -174l-25 315h82l-25 -315l267 174l39 -74l-285 -127l285 -127l-39 -74l-267 174l25 -315h-82l25 315l-265 -174z" />
<glyph unicode="+" horiz-adv-x="1230" d="M127 455v67h455v455h67v-455h455v-67h-455v-455h-67v455h-455z" />
<glyph unicode="," horiz-adv-x="436" d="M158 -199l49 199h-45v193h96v-193l-51 -199h-49z" />
<glyph unicode="-" horiz-adv-x="671" d="M117 532v72h438v-72h-438z" />
<glyph unicode="." horiz-adv-x="452" d="M178 0v193h96v-193h-96z" />
<glyph unicode="/" horiz-adv-x="901" d="M127 -240l592 1624h55l-592 -1624h-55z" />
<glyph unicode="0" horiz-adv-x="1179" d="M117 672q0 147 29.5 271.5t87 219t148.5 148t208 53.5t208 -53t148.5 -147.5t87 -219t29.5 -272.5t-29 -273t-86 -220t-148.5 -148.5t-209.5 -53.5t-209.5 54t-148.5 149t-86 219.5t-29 272.5zM184 672q0 -183 44 -324t137 -226t225 -85t225 85t136.5 226t43.5 324 t-43.5 323.5t-136.5 225t-225 84.5t-225 -84.5t-137 -225t-44 -323.5z" />
<glyph unicode="1" horiz-adv-x="733" d="M55 1266l381 77h68v-1343h-68v1282l-370 -70z" />
<glyph unicode="2" horiz-adv-x="1157" d="M139 0v102q0 152 92.5 263.5t346.5 259.5q185 107 261 199.5t76 215.5q0 135 -95.5 197.5t-295.5 62.5q-149 0 -346 -55l-14 58q199 61 381 61q224 0 331 -88t107 -236q0 -131 -73.5 -230t-241.5 -200q-95 -57 -162 -101t-118 -81.5t-83 -73t-52.5 -65.5t-30 -68.5 t-12.5 -72t-3 -85.5h803v-63h-871z" />
<glyph unicode="3" horiz-adv-x="1097" d="M113 33l14 55q149 -47 348 -47q188 0 303 94.5t115 239.5q0 138 -107 224.5t-290 86.5h-260v64h264q147 0 235 85.5t88 202.5q0 126 -89.5 195.5t-254.5 69.5q-144 0 -313 -41l-12 53q159 49 321 49q195 0 306.5 -90.5t111.5 -235.5q0 -92 -62.5 -187t-164.5 -128 q132 -33 213.5 -126t81.5 -218q0 -168 -134 -285t-352 -117q-213 0 -362 56z" />
<glyph unicode="4" horiz-adv-x="1200" d="M72 397v60l729 886h59v-882h234v-64h-234v-397h-67v397h-721zM156 461h637v776z" />
<glyph unicode="5" horiz-adv-x="1196" d="M162 78l20 51q213 -88 383 -88q94 0 172.5 31t131 84.5t81.5 124t29 149.5q0 162 -93.5 253t-254.5 91q-107 0 -183 -23t-176 -87l-47 22l90 657h664v-63h-614l-72 -530q140 88 338 88q126 0 222.5 -54.5t146 -145t49.5 -200.5q0 -90 -34 -173t-94.5 -147.5t-153 -102.5 t-202.5 -38q-213 0 -403 101z" />
<glyph unicode="6" horiz-adv-x="1157" d="M127 549q0 395 175.5 605t522.5 210q76 0 127 -14l-6 -58q-86 8 -141 8q-276 0 -432.5 -168.5t-177.5 -510.5q134 219 397 219q196 0 307 -118t111 -292q0 -66 -17 -130.5t-52.5 -123t-85 -102.5t-119.5 -70.5t-152 -26.5q-222 0 -339.5 147t-117.5 425zM203 424 q0 -57 14 -111t44.5 -104.5t74 -88.5t107.5 -60.5t141 -22.5q164 0 261 112t97 273q0 164 -93 260t-257 96q-162 0 -275.5 -100.5t-113.5 -253.5z" />
<glyph unicode="7" horiz-adv-x="989" d="M102 1280v63h822v-61l-605 -1282h-69l606 1280h-754z" />
<glyph unicode="8" horiz-adv-x="1163" d="M117 371q0 122 76.5 217.5t203.5 130.5q-104 42 -160.5 127t-56.5 180q0 147 111 242.5t291 95.5t290.5 -95.5t110.5 -242.5q0 -95 -57 -179.5t-162 -127.5q127 -35 205 -130.5t78 -217.5q0 -76 -30.5 -146.5t-87.5 -126t-147 -88.5t-200 -33t-200 33t-147 88.5 t-87.5 126t-30.5 146.5zM184 371q0 -147 108.5 -240.5t289.5 -93.5q180 0 288.5 93.5t108.5 240.5q0 139 -109 227t-288 88t-288.5 -88t-109.5 -227zM250 1026q0 -119 86.5 -197.5t245.5 -78.5q158 0 244.5 79.5t86.5 196.5q0 125 -95 201t-236 76q-142 0 -237 -76t-95 -201 z" />
<glyph unicode="9" horiz-adv-x="1157" d="M147 930q0 84 28.5 161t80.5 138.5t134.5 98t182.5 36.5q224 0 340.5 -149.5t116.5 -421.5q0 -395 -176 -605.5t-524 -210.5q-71 0 -125 15l6 57q86 -8 141 -8q276 0 432 169t177 511q-134 -219 -392 -219q-102 0 -184.5 37t-133 99t-77.5 137t-27 155zM215 938 q0 -168 95 -271.5t259 -103.5q162 0 272.5 100.5t110.5 254.5q0 72 -23 138.5t-67 123.5t-119 91t-170 34q-166 0 -262 -104t-96 -263z" />
<glyph unicode=":" horiz-adv-x="452" d="M178 0v193h96v-193h-96zM178 784v193h96v-193h-96z" />
<glyph unicode=";" horiz-adv-x="446" d="M168 -199l49 199h-45v193h96v-193l-51 -199h-49zM172 784v193h96v-193h-96z" />
<glyph unicode="&#x3c;" horiz-adv-x="1179" d="M76 475v53l966 488v-70l-890 -446l890 -449v-67z" />
<glyph unicode="=" horiz-adv-x="1107" d="M127 276v64h854v-64h-854zM127 631v63h854v-63h-854z" />
<glyph unicode="&#x3e;" horiz-adv-x="1179" d="M137 -16v67l891 449l-891 446v70l967 -488v-53z" />
<glyph unicode="?" horiz-adv-x="978" d="M127 1337q70 20 182.5 33.5t194.5 13.5q174 0 261 -70.5t87 -201.5q0 -147 -84.5 -313t-298.5 -449l-49 33q187 253 274.5 416t87.5 301q0 112 -62 166.5t-220 54.5q-157 0 -361 -39zM391 0v193h98v-193h-98z" />
<glyph unicode="@" horiz-adv-x="1468" d="M147 680q0 153 42 284t117.5 223.5t182.5 144.5t234 52q197 0 296 -105t99 -284v-618h-57v108q-35 -56 -90.5 -88t-116.5 -32q-69 0 -123 28.5t-85.5 76t-47.5 104t-16 118.5t16 118t47.5 103.5t85.5 76t123 28.5q61 0 115 -32.5t90 -88.5v94q0 70 -16.5 127t-53 106.5 t-104.5 77t-162 27.5q-153 0 -271 -84t-181.5 -231.5t-63.5 -333.5q0 -187 82.5 -334.5t231 -230t337.5 -82.5q250 0 508 98l16 -47q-253 -107 -524 -107q-145 0 -274.5 50t-226.5 139.5t-153.5 223t-56.5 290.5zM641 692q0 -120 54.5 -195t154.5 -75t155.5 78t55.5 192 t-55.5 192.5t-155.5 78.5t-154.5 -75.5t-54.5 -195.5z" />
<glyph unicode="A" d="M41 0l571 1364h35l572 -1364h-68l-170 410h-700l-172 -410h-68zM305 469h651l-325 784z" />
<glyph unicode="B" horiz-adv-x="1312" d="M209 0v1364h508q222 0 335 -92.5t113 -253.5q0 -99 -57 -182t-156 -119q126 -40 190 -129t64 -213q0 -75 -26.5 -142t-77 -119.5t-132 -83t-182.5 -30.5h-579zM279 59h528q147 0 239.5 86t92.5 226q0 138 -86 222.5t-250 84.5h-524v-619zM279 737h460q71 0 134 17 t113.5 50.5t80 88.5t29.5 125q0 140 -95.5 213.5t-252.5 73.5h-469v-568z" />
<glyph unicode="C" horiz-adv-x="1282" d="M86 680q0 315 202 509.5t535 194.5q189 0 320 -32l-13 -58q-170 29 -315 29q-131 0 -249 -42t-210 -120.5t-146 -203t-54 -277.5q0 -123 36 -228t98 -180t146 -128.5t180 -79t199 -25.5q180 0 315 31l15 -56q-151 -37 -322 -37q-216 0 -383.5 88t-260.5 248t-93 367z" />
<glyph unicode="D" horiz-adv-x="1335" d="M209 0v1364h258q218 0 396.5 -87t282 -243.5t103.5 -351.5t-103 -351.5t-281.5 -243.5t-397.5 -87h-258zM276 63h197q108 0 211 26t193 79t158 126t107.5 173t39.5 215q0 114 -39 214t-107 173t-158 125.5t-193.5 79t-211.5 26.5h-197v-1237z" />
<glyph unicode="E" horiz-adv-x="1236" d="M209 0v1364h881v-64h-814v-559h760v-63h-760v-615h814v-63h-881z" />
<glyph unicode="F" horiz-adv-x="1200" d="M209 0v1364h895v-64h-828v-559h773v-63h-773v-678h-67z" />
<glyph unicode="G" horiz-adv-x="1384" d="M86 680q0 323 193.5 513.5t525.5 190.5q209 0 383 -55l-12 -55q-198 49 -373 49q-293 0 -470 -171.5t-177 -471.5q0 -148 53.5 -270.5t146 -203t215.5 -124t263 -43.5q163 0 315 47v494h68v-535q-80 -32 -188.5 -50t-194.5 -18q-158 0 -295 50t-237.5 140t-158 222.5 t-57.5 290.5z" />
<glyph unicode="H" horiz-adv-x="1376" d="M209 0v1364h67v-623h824v623h67v-1364h-67v678h-824v-678h-67z" />
<glyph unicode="I" horiz-adv-x="505" d="M219 0v1364h68v-1364h-68z" />
<glyph unicode="J" horiz-adv-x="931" d="M117 0v63h256q147 0 224 91.5t77 222.5v923h-520v64h589v-987q0 -161 -99.5 -269t-266.5 -108h-260z" />
<glyph unicode="K" horiz-adv-x="1220" d="M209 0v1364h70v-631l757 631h94l-788 -662l844 -702h-94l-813 676v-676h-70z" />
<glyph unicode="L" horiz-adv-x="1075" d="M209 0v1364h67v-1301h734v-63h-801z" />
<glyph unicode="M" horiz-adv-x="1619" d="M209 0v1364h67l533 -1118l534 1118h68v-1364h-63v1237l-514 -1077h-50l-512 1077v-1237h-63z" />
<glyph unicode="N" horiz-adv-x="1474" d="M209 0v1364h63l930 -1258v1258h64v-1364h-64l-930 1260v-1260h-63z" />
<glyph unicode="O" horiz-adv-x="1486" d="M117 680q0 144 44 272t123.5 224t198 152t260.5 56q188 0 332.5 -96.5t219.5 -255.5t75 -352q0 -143 -44 -271t-123.5 -224t-198.5 -152t-261 -56t-260.5 56t-198 152t-123.5 223.5t-44 271.5zM184 680q0 -178 69.5 -324.5t198.5 -232.5t291 -86t291 86t199 232.5 t70 324.5t-70 325t-199 233.5t-291 86.5t-291 -86.5t-198.5 -233.5t-69.5 -325z" />
<glyph unicode="P" horiz-adv-x="1253" d="M209 0v1364h588q189 0 295 -109.5t106 -269.5q0 -103 -44 -187.5t-136.5 -138t-218.5 -53.5h-523v-606h-67zM276 670h539q133 0 224 86.5t91 228.5t-92 228.5t-225 86.5h-537v-630z" />
<glyph unicode="Q" horiz-adv-x="1486" d="M117 682q0 144 44 271.5t123.5 223t198 151.5t260.5 56q188 0 332.5 -96t219.5 -254.5t75 -351.5q0 -188 -70.5 -343.5t-207 -253t-316.5 -105.5v-367h-63v367q-180 8 -317 105.5t-208 253.5t-71 343zM186 682q0 -178 69 -325t197.5 -233.5t290.5 -86.5t291 86.5 t199 233.5t70 325t-70 324.5t-199 232.5t-291 86t-290.5 -86t-197.5 -232.5t-69 -324.5z" />
<glyph unicode="R" horiz-adv-x="1413" d="M209 0v1364h600q127 0 220 -52.5t137 -136t44 -186.5q0 -138 -81.5 -240.5t-229.5 -127.5l459 -621h-80l-453 614h-549v-614h-67zM276 678h549q134 0 226 84.5t92 226.5t-92 226.5t-226 84.5h-549v-622z" />
<glyph unicode="S" d="M137 84l17 53q269 -100 514 -100q191 0 303 79.5t112 190.5q0 73 -31.5 126t-124.5 112t-265 125q-152 59 -246 108t-148 101.5t-73 104.5t-19 124q0 138 122.5 207t348.5 69q101 0 232 -17.5t233 -47.5l-12 -53q-221 59 -449 59q-214 0 -311.5 -53t-97.5 -168 q0 -65 18.5 -110.5t72 -91t138.5 -87t231 -98.5q116 -45 198 -88t131 -80t76.5 -78.5t36.5 -77.5t9 -84q0 -139 -129 -235.5t-352 -96.5q-269 0 -535 107z" />
<glyph unicode="T" horiz-adv-x="1087" d="M35 1305v59h1018v-59h-475v-1305h-68v1305h-475z" />
<glyph unicode="U" horiz-adv-x="1400" d="M188 449v915h68v-926q0 -178 125 -289.5t319 -111.5t318.5 111t124.5 290v926h69v-915q0 -94 -33 -178t-95.5 -150t-161.5 -105t-222 -39t-222 39t-161.5 105.5t-95.5 150.5t-33 177z" />
<glyph unicode="V" horiz-adv-x="1177" d="M14 1364h64l510 -1249l510 1249h65l-557 -1364h-37z" />
<glyph unicode="W" horiz-adv-x="1771" d="M25 1364h63l375 -1268l377 1268h90l377 -1268l376 1268h64l-408 -1364h-63l-391 1311l-389 -1311h-64z" />
<glyph unicode="X" horiz-adv-x="1335" d="M45 0l582 682l-582 682h80l543 -635l542 635h80l-583 -682l583 -682h-80l-542 637l-543 -637h-80z" />
<glyph unicode="Y" horiz-adv-x="1212" d="M-6 1364h74l538 -737l537 737h76l-578 -793v-571h-70v571z" />
<glyph unicode="Z" horiz-adv-x="1314" d="M127 0v63l1003 1237h-972v64h1050v-64l-1005 -1237h999v-63h-1075z" />
<glyph unicode="[" horiz-adv-x="552" d="M209 -258v1876h299v-64h-229v-1749h229v-63h-299z" />
<glyph unicode="\" horiz-adv-x="901" d="M127 1384h55l592 -1624h-55z" />
<glyph unicode="]" horiz-adv-x="552" d="M45 -195h229v1749h-229v64h299v-1876h-299v63z" />
<glyph unicode="^" horiz-adv-x="917" d="M76 670l373 694h20l373 -694h-64l-319 610l-320 -610h-63z" />
<glyph unicode="_" horiz-adv-x="755" d="M-2 -23h760v-34h-760v34z" />
<glyph unicode="`" horiz-adv-x="577" d="M137 1376h94l199 -239h-76z" />
<glyph unicode="a" horiz-adv-x="1015" d="M113 274q0 90 45.5 153.5t116.5 91.5t159 28h365v135q0 130 -72 200t-238 70q-160 0 -313 -30l-10 59q158 35 321 35q193 0 287 -84.5t94 -235.5v-696h-69v133q-118 -149 -348 -149q-65 0 -123.5 17t-107.5 50.5t-78 91t-29 131.5zM180 264q0 -101 78 -159t193 -58 q145 0 246.5 79t101.5 204v153h-365q-122 0 -188 -56t-66 -163z" />
<glyph unicode="b" horiz-adv-x="1132" d="M178 0v1364h68v-580q51 106 146 169t204 63t194 -44.5t135 -119.5t75.5 -164.5t25.5 -187.5t-25.5 -187.5t-75.5 -164.5t-135 -119.5t-194 -44.5t-204 62t-146 167v-213h-68zM246 500q0 -89 22.5 -169.5t66 -144.5t113 -101.5t156.5 -37.5q170 0 262 127.5t92 325.5 t-92 324t-262 126q-87 0 -156.5 -37.5t-113 -100.5t-66 -143t-22.5 -169z" />
<glyph unicode="c" horiz-adv-x="946" d="M98 500q0 227 132.5 371.5t361.5 144.5q132 0 248 -35l-15 -55q-114 28 -225 28q-207 0 -320.5 -124t-113.5 -330q0 -207 112.5 -331t321.5 -124q102 0 225 29l15 -56q-116 -34 -248 -34q-228 0 -361 144.5t-133 371.5z" />
<glyph unicode="d" horiz-adv-x="1132" d="M106 500q0 78 15.5 151t49.5 139.5t83 116.5t122 79.5t161 29.5q109 0 204 -63t146 -169v580h67v-1364h-67v213q-51 -105 -146 -167t-204 -62q-88 0 -161 29.5t-122 79.5t-83 116.5t-49.5 139.5t-15.5 151zM174 500q0 -198 92 -325.5t262 -127.5q115 0 198.5 65.5 t122 166.5t38.5 221t-38.5 220t-122 165t-198.5 65q-170 0 -262 -126t-92 -324z" />
<glyph unicode="e" horiz-adv-x="1060" d="M102 500q0 141 51 257t152.5 187.5t235.5 71.5q103 0 184.5 -42.5t130.5 -115t74.5 -162.5t25.5 -192v-23h-786q7 -203 122.5 -318.5t305.5 -115.5q146 0 303 43l17 -57q-155 -49 -320 -49q-227 0 -361.5 145t-134.5 371zM170 547h721q-14 186 -103 295.5t-247 109.5 q-161 0 -258 -112t-113 -293z" />
<glyph unicode="f" horiz-adv-x="641" d="M86 934v63h162v138q0 280 244 280q64 0 135 -18l-13 -54q-76 13 -131 13q-88 0 -128 -53.5t-40 -167.5v-138h244v-63h-244v-934h-67v934h-162z" />
<glyph unicode="g" horiz-adv-x="1116" d="M98 508q0 77 15.5 149.5t49.5 138t83.5 114.5t122.5 77.5t161 28.5q109 0 203.5 -62t145.5 -168v211h69v-919q0 -205 -110 -326t-330 -121q-180 0 -320 64l13 51q160 -55 307 -55q193 0 282 102t89 297v141q-51 -105 -145.5 -167t-203.5 -62q-88 0 -161 28.5t-122.5 77 t-83.5 113.5t-49.5 137.5t-15.5 149.5zM168 508q0 -197 90.5 -319.5t261.5 -122.5q87 0 157 36t113 98t66 140.5t23 167.5t-23 168t-66 141t-113 98.5t-157 36.5q-115 0 -195.5 -59t-118.5 -157.5t-38 -227.5z" />
<glyph unicode="h" horiz-adv-x="1118" d="M178 0v1364h70v-588q49 106 149 173t221 67q158 0 245 -97t87 -253v-666h-67v662q0 131 -68 207.5t-207 76.5q-69 0 -133.5 -30t-115 -84t-81 -136.5t-30.5 -179.5v-516h-70z" />
<glyph unicode="i" horiz-adv-x="423" d="M178 0v997h68v-997h-68zM178 1163v189h68v-189h-68z" />
<glyph unicode="j" horiz-adv-x="473" d="M-57 -346l12 55q82 -20 133 -20q82 0 116 49t34 139v1120h67v-1116q0 -252 -223 -252q-59 0 -139 25zM238 1163v189h67v-189h-67z" />
<glyph unicode="k" horiz-adv-x="923" d="M178 0v1364h70v-797l504 430h100l-567 -481l614 -516h-102l-549 469v-469h-70z" />
<glyph unicode="l" horiz-adv-x="575" d="M168 244v1120h68v-1139q0 -90 40 -134t113 -44h90v-59h-82q-229 0 -229 256z" />
<glyph unicode="m" horiz-adv-x="1794" d="M178 0v997h68v-221q49 107 143.5 173.5t214.5 66.5q130 0 213 -68t109 -182q52 107 151 178.5t217 71.5q158 0 245 -97t87 -253v-666h-67v662q0 131 -67 207.5t-206 76.5q-142 0 -246 -117.5t-104 -300.5v-528h-68v662q0 131 -66.5 207.5t-205.5 76.5q-69 0 -132 -30 t-111.5 -84t-77.5 -136t-29 -180v-516h-68z" />
<glyph unicode="n" horiz-adv-x="1118" d="M178 0v997h70v-221q49 106 149 173t221 67q158 0 245 -97t87 -253v-666h-67v662q0 131 -67 207.5t-206 76.5q-144 0 -253 -119t-109 -311v-516h-70z" />
<glyph unicode="o" horiz-adv-x="1091" d="M106 500q0 104 29.5 197t84 164.5t139 113t188.5 41.5q138 0 239 -71.5t150 -187t49 -257.5t-49 -257.5t-150 -187t-239 -71.5q-104 0 -188.5 41.5t-139 113t-84 164.5t-29.5 197zM176 500q0 -202 99.5 -327.5t271.5 -125.5t271.5 125.5t99.5 327.5t-99.5 327t-271.5 125 t-271.5 -125t-99.5 -327z" />
<glyph unicode="p" horiz-adv-x="1132" d="M178 -354v1351h70v-213q51 106 145.5 169t202.5 63q109 0 194 -44.5t135 -119.5t75.5 -164.5t25.5 -187.5t-25.5 -187.5t-75.5 -164.5t-135 -119.5t-194 -44.5t-203 61.5t-145 167.5v-567h-70zM248 500q0 -71 13.5 -136.5t42.5 -123.5t70.5 -100.5t100.5 -67.5t129 -25 q170 0 262 127.5t92 325.5t-92 324t-262 126q-70 0 -129 -24.5t-100.5 -67t-70.5 -99.5t-42.5 -122.5t-13.5 -136.5z" />
<glyph unicode="q" horiz-adv-x="1132" d="M106 500q0 78 15.5 151t49.5 139.5t83 116.5t122 79.5t161 29.5q108 0 202.5 -63t145.5 -169v213h69v-1351h-69v567q-51 -106 -145 -167.5t-203 -61.5q-88 0 -161 29.5t-122 79.5t-83 116.5t-49.5 139.5t-15.5 151zM174 500q0 -198 92 -325.5t262 -127.5q87 0 156.5 37.5 t112.5 101.5t65.5 144.5t22.5 169.5t-22.5 169t-65.5 143t-112.5 100.5t-156.5 37.5q-170 0 -262 -126t-92 -324z" />
<glyph unicode="r" horiz-adv-x="679" d="M178 0v997h70v-233q59 110 160.5 181t234.5 71v-70q-114 0 -207 -62t-140.5 -152.5t-47.5 -184.5v-547h-70z" />
<glyph unicode="s" horiz-adv-x="917" d="M98 74l23 53q169 -80 321 -80q135 0 222.5 49t87.5 144q0 77 -69.5 125.5t-291.5 138.5q-152 61 -207 126.5t-55 162.5q0 110 92.5 166.5t249.5 56.5q143 0 305 -45l-14 -58q-168 39 -287 39q-142 0 -209 -40.5t-67 -127.5q0 -72 53 -123.5t197 -109.5 q227 -92 299.5 -151.5t72.5 -163.5q0 -113 -102 -182.5t-273 -69.5q-85 0 -182 25.5t-166 64.5z" />
<glyph unicode="t" horiz-adv-x="630" d="M76 934v63h141v283h68l2 -283h211v-63h-213v-717q0 -89 29.5 -130.5t93.5 -41.5q58 0 129 14l8 -53q-68 -22 -137 -22q-96 0 -143.5 56.5t-47.5 176.5v717h-141z" />
<glyph unicode="u" horiz-adv-x="1110" d="M160 332v665h67v-661q0 -131 68 -208t207 -77q144 0 253 119t109 311v516h68v-997h-68v221q-48 -105 -148 -171t-222 -66q-159 0 -246.5 96.5t-87.5 251.5z" />
<glyph unicode="v" horiz-adv-x="909" d="M14 997h72l369 -923l372 923h68l-406 -997h-67z" />
<glyph unicode="w" horiz-adv-x="1355" d="M10 997h70l299 -878l264 878h66l272 -862l297 862h68l-340 -997h-58l-270 881l-270 -881h-58z" />
<glyph unicode="x" horiz-adv-x="1007" d="M55 0l408 516l-381 481h80l342 -432l342 432h80l-381 -481l407 -516h-80l-368 465l-369 -465h-80z" />
<glyph unicode="y" horiz-adv-x="913" d="M8 997h72l369 -919l370 919h70l-549 -1351h-68l144 354z" />
<glyph unicode="z" horiz-adv-x="1044" d="M117 0v63l702 871h-653v63h735v-63l-704 -871h721v-63h-801z" />
<glyph unicode="{" horiz-adv-x="462" d="M76 633v59h18q86 0 86 78v633q0 98 55 156.5t158 58.5h56v-64h-56q-69 0 -107 -37t-38 -112v-631q0 -105 -103 -110q103 -7 103 -111v-631q0 -75 38 -112t107 -37h56v-66h-56q-103 0 -158 59.5t-55 157.5v633q0 76 -86 76h-18z" />
<glyph unicode="|" horiz-adv-x="501" d="M229 -410v2048h43v-2048h-43z" />
<glyph unicode="}" horiz-adv-x="462" d="M14 -227h56q69 0 107 37t38 112v631q0 104 100 111q-100 5 -100 110v631q0 75 -38 112t-107 37h-56v64h56q103 0 158 -58.5t55 -156.5v-633q0 -78 86 -78h18v-59h-18q-86 0 -86 -76v-633q0 -98 -55 -157.5t-158 -59.5h-56v66z" />
<glyph unicode="~" horiz-adv-x="995" d="M61 436q25 85 91.5 147t150.5 62q53 0 109.5 -22.5t97 -50t93 -50t97.5 -22.5q64 0 105 42t72 115l57 -22q-22 -81 -89.5 -145t-152.5 -64q-54 0 -110 22.5t-96 50t-92 50t-97 22.5q-63 0 -103 -42.5t-73 -114.5z" />
<glyph unicode="&#xa1;" horiz-adv-x="516" d="M209 1171v193h98v-193h-98zM219 0v528l21 547h39l20 -547v-528h-80z" />
<glyph unicode="&#xa2;" horiz-adv-x="946" d="M98 500q0 213 120.5 356t326.5 158v209h43v-207h4q132 0 248 -35l-13 -59q-122 30 -227 30q-2 0 -6 -1t-6 -1v-901q2 0 6 -1t6 -1q95 0 227 31l13 -60q-116 -34 -248 -34h-4v-201h-43v203q-206 15 -326.5 158t-120.5 356zM166 500q0 -192 97.5 -312t281.5 -137v897 q-184 -17 -281.5 -136.5t-97.5 -311.5z" />
<glyph unicode="&#xa3;" horiz-adv-x="1271" d="M168 588v63h192q-48 91 -69.5 136.5t-40.5 117.5t-19 148q0 157 117 244t330 87q209 0 401 -63l-12 -53q-203 53 -362 53q-204 0 -304 -64.5t-100 -207.5q0 -67 21 -140.5t45 -124t69 -133.5h420v-63h-405q21 -121 -4 -262t-82 -263h729v-63h-912l-2 63h113 q129 284 84 525h-209z" />
<glyph unicode="&#xa4;" horiz-adv-x="1472" d="M66 514v55h219q-6 53 -6 111q0 69 8 121h-221v55h231q56 243 252 385.5t479 142.5q73 0 161.5 -12t145.5 -29l-10 -53q-143 35 -317 35q-144 0 -274 -52t-229.5 -160.5t-137.5 -256.5h426v-55h-437q-10 -62 -10 -121q0 -64 8 -111h439v-55h-428q27 -114 91.5 -206 t151.5 -150.5t189.5 -89.5t210.5 -31q180 0 315 37l12 -54q-142 -43 -307 -43q-284 0 -481.5 145.5t-251.5 391.5h-229z" />
<glyph unicode="&#xa5;" horiz-adv-x="1212" d="M-6 1364h76l536 -737l539 737h74l-416 -571h209v-64h-256l-115 -158v-114h371v-66h-371v-391h-68v391h-370v66h370v114l-114 158h-256v64h209z" />
<glyph unicode="&#xa6;" horiz-adv-x="501" d="M229 -410v881h43v-881h-43zM229 758v880h43v-880h-43z" />
<glyph unicode="&#xa7;" horiz-adv-x="1163" d="M168 -270l18 45q78 -36 178.5 -62t190.5 -26q102 0 182.5 22.5t132.5 75t52 129.5q0 28 -7.5 51t-18 42t-39.5 40.5t-53 37t-79 41.5t-97.5 44.5t-127.5 54.5q-164 70 -231.5 143.5t-67.5 176.5q0 82 61 159.5t172 139.5q-127 59 -180 130t-53 165q0 120 104.5 182.5 t284.5 62.5q174 0 340 -47l-12 -51q-160 41 -324 41q-166 0 -247 -47.5t-81 -151.5q0 -67 39.5 -119.5t103 -86.5t140.5 -64t153.5 -61.5t140 -69t103 -95.5t39.5 -132q0 -170 -274 -299q162 -74 218 -134.5t56 -156.5q0 -125 -115.5 -203t-310.5 -78q-92 0 -202 29t-189 72 zM266 539q0 -86 63 -147t230 -128q13 -5 38.5 -16.5t39.5 -16.5q117 43 201 114.5t84 160.5q0 33 -7.5 58.5t-30 50.5t-50 44.5t-80.5 46t-108 50t-146 59.5q-130 -69 -182 -132.5t-52 -143.5z" />
<glyph unicode="&#xa8;" horiz-adv-x="696" d="M156 1157v193h84v-193h-84zM457 1157v193h84v-193h-84z" />
<glyph unicode="&#xa9;" horiz-adv-x="1593" d="M86 682q0 191 96.5 353t259.5 255.5t353 93.5q142 0 273.5 -55.5t227.5 -149t153.5 -224t57.5 -273.5q0 -191 -97 -353.5t-261 -257t-354 -94.5t-353 94.5t-259.5 257t-96.5 353.5zM127 682q0 -178 88 -331t242 -244t338 -91q138 0 262.5 54t214 144t142 212.5 t52.5 255.5t-52.5 255.5t-142 212t-214 143t-262.5 53.5q-184 0 -338 -90.5t-242 -243t-88 -330.5zM467 680q0 158 104.5 256t272.5 98q88 0 155 -18l-6 -29q-74 19 -159 19q-64 0 -123 -21.5t-106.5 -61t-76 -103t-28.5 -140.5q0 -102 49 -177.5t123.5 -111t161.5 -35.5 t159 19l6 -27q-70 -20 -155 -20q-168 0 -272.5 97t-104.5 255z" />
<glyph unicode="&#xaa;" horiz-adv-x="739" d="M117 909q0 87 53.5 130.5t140.5 43.5h246v88q0 172 -199 172q-101 0 -200 -18l-8 37q99 22 208 22q121 0 182.5 -54.5t61.5 -149.5v-447h-45v86q-75 -96 -223 -96q-56 0 -103.5 18.5t-80.5 62t-33 105.5zM162 903q0 -65 49 -102t123 -37q93 0 158 50t65 130v98h-246 q-149 0 -149 -139z" />
<glyph unicode="&#xab;" horiz-adv-x="1107" d="M76 492l473 491l37 -35l-441 -456l441 -457l-37 -35zM410 492l475 491l35 -35l-441 -456l441 -457l-35 -35z" />
<glyph unicode="&#xac;" horiz-adv-x="1011" d="M86 473v47h717v-520h-51v473h-666z" />
<glyph unicode="&#xad;" horiz-adv-x="671" d="M117 532v72h438v-72h-438z" />
<glyph unicode="&#xae;" horiz-adv-x="1593" d="M86 682q0 191 96.5 353t259.5 255.5t353 93.5q142 0 273.5 -55.5t227.5 -149t153.5 -224t57.5 -273.5q0 -191 -97 -353.5t-261 -257t-354 -94.5t-353 94.5t-259.5 257t-96.5 353.5zM127 682q0 -178 88 -331t242 -244t338 -91q138 0 262.5 54t214 144t142 212.5 t52.5 255.5t-52.5 255.5t-142 212t-214 143t-262.5 53.5q-184 0 -338 -90.5t-242 -243t-88 -330.5zM557 338v686h303q95 0 148 -54t53 -134q0 -70 -41 -122t-115 -65l230 -311h-39l-230 309h-276v-309h-33zM590 678h278q67 0 112.5 43.5t45.5 114.5t-45.5 113t-112.5 42 h-278v-313z" />
<glyph unicode="&#xaf;" horiz-adv-x="659" d="M106 1255v52h447v-52h-447z" />
<glyph unicode="&#xb0;" horiz-adv-x="645" d="M117 1180q0 86 59.5 145t145.5 59t146 -59t60 -145q0 -85 -60 -147t-146 -62t-145.5 62t-59.5 147zM141 1180q0 -75 53 -130t128 -55t128.5 55t53.5 130t-53.5 127.5t-128.5 52.5t-128 -52.5t-53 -127.5z" />
<glyph unicode="&#xb1;" horiz-adv-x="1228" d="M127 0v63h455v392h-455v67h455v455h67v-455h453v-67h-453v-392h453v-63h-975z" />
<glyph unicode="&#xb2;" horiz-adv-x="1359" d="M0 344v336h336v-336h-336zM0 1028v336h336v-336h-336zM340 0v338h338v-338h-338zM340 684v338h338v-338h-338zM682 344v336h336v-336h-336zM682 1028v336h336v-336h-336zM1022 0v338h338v-338h-338zM1022 684v338h338v-338h-338z" />
<glyph unicode="&#xb3;" horiz-adv-x="1359" d="M0 344v336h336v-336h-336zM0 1028v336h336v-336h-336zM340 0v338h338v-338h-338zM340 684v338h338v-338h-338zM682 344v336h336v-336h-336zM682 1028v336h336v-336h-336zM1022 0v338h338v-338h-338zM1022 684v338h338v-338h-338z" />
<glyph unicode="&#xb4;" horiz-adv-x="577" d="M147 1137l199 239h94l-217 -239h-76z" />
<glyph unicode="&#xb5;" horiz-adv-x="1110" d="M160 -354v1351h67v-661q0 -131 67 -208t206 -77q144 0 253 119t109 311v516h70v-997h-70v221q-48 -105 -148 -171t-222 -66q-181 0 -269 125v-463h-63z" />
<glyph unicode="&#xb6;" horiz-adv-x="776" d="M55 1122q0 98 71 170t169 72h272v-1364h-55v1313h-158v-1313h-59v883q-98 0 -169 70.5t-71 168.5z" />
<glyph unicode="&#xb7;" horiz-adv-x="452" d="M178 606v193h96v-193h-96z" />
<glyph unicode="&#xb8;" horiz-adv-x="581" d="M106 -469l9 35q71 -21 151 -21q66 0 109 34.5t43 101.5q0 68 -46.5 103.5t-117.5 35.5q-49 0 -90 -10l45 190h41l-33 -147q29 4 59 4q94 0 146.5 -49t52.5 -121q0 -82 -52 -135.5t-147 -53.5q-96 0 -170 33z" />
<glyph unicode="&#xb9;" horiz-adv-x="1359" d="M0 344v336h336v-336h-336zM0 1028v336h336v-336h-336zM340 0v338h338v-338h-338zM340 684v338h338v-338h-338zM682 344v336h336v-336h-336zM682 1028v336h336v-336h-336zM1022 0v338h338v-338h-338zM1022 684v338h338v-338h-338z" />
<glyph unicode="&#xba;" horiz-adv-x="753" d="M96 1053q0 140 75 235.5t206 95.5t205.5 -95.5t74.5 -235.5t-74.5 -235t-205.5 -95t-206 95t-75 235zM139 1053q0 -130 63.5 -209.5t174.5 -79.5t174 79.5t63 209.5t-63 210t-174 80t-174.5 -80t-63.5 -210z" />
<glyph unicode="&#xbb;" horiz-adv-x="1107" d="M188 35l441 457l-441 456l35 35l475 -491l-475 -492zM522 35l441 457l-441 456l37 35l473 -491l-473 -492z" />
<glyph unicode="&#xbc;" horiz-adv-x="1359" d="M0 344v336h336v-336h-336zM0 1028v336h336v-336h-336zM340 0v338h338v-338h-338zM340 684v338h338v-338h-338zM682 344v336h336v-336h-336zM682 1028v336h336v-336h-336zM1022 0v338h338v-338h-338zM1022 684v338h338v-338h-338z" />
<glyph unicode="&#xbd;" horiz-adv-x="1359" d="M0 344v336h336v-336h-336zM0 1028v336h336v-336h-336zM340 0v338h338v-338h-338zM340 684v338h338v-338h-338zM682 344v336h336v-336h-336zM682 1028v336h336v-336h-336zM1022 0v338h338v-338h-338zM1022 684v338h338v-338h-338z" />
<glyph unicode="&#xbe;" horiz-adv-x="1359" d="M0 344v336h336v-336h-336zM0 1028v336h336v-336h-336zM340 0v338h338v-338h-338zM340 684v338h338v-338h-338zM682 344v336h336v-336h-336zM682 1028v336h336v-336h-336zM1022 0v338h338v-338h-338zM1022 684v338h338v-338h-338z" />
<glyph unicode="&#xbf;" horiz-adv-x="978" d="M127 250q0 147 84.5 313t298.5 449l49 -33q-187 -253 -274.5 -416t-87.5 -301q0 -112 62 -166.5t220 -54.5q159 0 363 39l10 -55q-184 -48 -377 -48q-174 0 -261 71t-87 202zM489 1169v195h99v-195h-99z" />
<glyph unicode="&#xc0;" d="M41 0l571 1364h35l572 -1364h-68l-170 410h-700l-172 -410h-68zM305 469h651l-325 784zM354 1720h95l198 -239h-76z" />
<glyph unicode="&#xc1;" d="M41 0l571 1364h35l572 -1364h-68l-170 410h-700l-172 -410h-68zM305 469h651l-325 784zM606 1481l199 239h96l-217 -239h-78z" />
<glyph unicode="&#xc2;" d="M41 0l571 1364h35l572 -1364h-68l-170 410h-700l-172 -410h-68zM305 469h651l-325 784zM383 1460l205 240h86l203 -240h-62l-184 209l-187 -209h-61z" />
<glyph unicode="&#xc3;" d="M41 0l571 1364h35l572 -1364h-68l-170 410h-700l-172 -410h-68zM305 469h651l-325 784zM346 1501q16 55 59.5 94t98.5 39q53 0 134 -45t122 -45q38 0 62.5 26t47.5 70l43 -16q-16 -55 -59 -94t-98 -39q-53 0 -134 45t-122 45q-38 0 -63.5 -26t-47.5 -70z" />
<glyph unicode="&#xc4;" d="M41 0l571 1364h35l572 -1364h-68l-170 410h-700l-172 -410h-68zM305 469h651l-325 784zM436 1487v192h84v-192h-84zM737 1487v192h86v-192h-86z" />
<glyph unicode="&#xc5;" d="M41 0l571 1364h35l572 -1364h-68l-170 410h-700l-172 -410h-68zM305 469h651l-325 784zM500 1573q0 54 38.5 92.5t92.5 38.5t91.5 -38.5t37.5 -92.5t-37.5 -91.5t-91.5 -37.5t-92.5 37.5t-38.5 91.5zM543 1573q0 -37 26 -64.5t62 -27.5t62 27.5t26 64.5t-26 64.5 t-62 27.5t-62 -27.5t-26 -64.5z" />
<glyph unicode="&#xc6;" horiz-adv-x="1792" d="M41 0l571 1364h1033v-64h-969l170 -559h743v-63h-725l187 -615h594v-63h-648l-114 410h-604l-173 -410h-65zM303 469h555l-229 784z" />
<glyph unicode="&#xc7;" horiz-adv-x="1282" d="M86 680q0 315 202 509.5t535 194.5q189 0 320 -32l-13 -58q-170 29 -315 29q-131 0 -249 -42t-210 -120.5t-146 -203t-54 -277.5q0 -123 36 -228t98 -180t146 -128.5t180 -79t199 -25.5q180 0 315 31l15 -56q-151 -37 -322 -37q-216 0 -383.5 88t-260.5 248t-93 367z M637 -469l8 35q71 -21 152 -21q66 0 108.5 34.5t42.5 101.5q0 68 -46.5 103.5t-117.5 35.5q-49 0 -90 -10l45 190h41l-32 -147q29 4 59 4q94 0 146.5 -49t52.5 -121q0 -82 -52 -135.5t-147 -53.5q-96 0 -170 33z" />
<glyph unicode="&#xc8;" horiz-adv-x="1236" d="M209 0v1364h881v-64h-814v-559h760v-63h-760v-615h814v-63h-881zM377 1720h94l201 -239h-76z" />
<glyph unicode="&#xc9;" horiz-adv-x="1236" d="M209 0v1364h881v-64h-814v-559h760v-63h-760v-615h814v-63h-881zM582 1481l198 239h97l-218 -239h-77z" />
<glyph unicode="&#xca;" horiz-adv-x="1236" d="M209 0v1364h881v-64h-814v-559h760v-63h-760v-615h814v-63h-881zM393 1460l205 240h86l203 -240h-62l-184 209l-186 -209h-62z" />
<glyph unicode="&#xcb;" horiz-adv-x="1236" d="M209 0v1364h881v-64h-814v-559h760v-63h-760v-615h814v-63h-881zM457 1487v192h84v-192h-84zM758 1487v192h84v-192h-84z" />
<glyph unicode="&#xcc;" horiz-adv-x="552" d="M2 1720h94l201 -239h-76zM219 0v1364h68v-1364h-68z" />
<glyph unicode="&#xcd;" horiz-adv-x="552" d="M219 0v1364h68v-1364h-68zM223 1481l199 239h96l-217 -239h-78z" />
<glyph unicode="&#xce;" horiz-adv-x="552" d="M31 1460l205 240h86l200 -240h-61l-185 209l-186 -209h-59zM219 0v1364h68v-1364h-68z" />
<glyph unicode="&#xcf;" horiz-adv-x="552" d="M84 1487v192h84v-192h-84zM219 0v1364h68v-1364h-68zM385 1487v192h84v-192h-84z" />
<glyph unicode="&#xd0;" horiz-adv-x="1374" d="M106 651v66h142v647h258q218 0 396.5 -87t282 -243.5t103.5 -351.5t-103 -351.5t-281.5 -243.5t-397.5 -87h-258v651h-142zM315 63h197q108 0 211 26t193 79t158 126t107.5 173t39.5 215q0 114 -39 214t-107 173t-158 125.5t-193.5 79t-211.5 26.5h-197v-583h265v-66 h-265v-588z" />
<glyph unicode="&#xd1;" horiz-adv-x="1474" d="M209 0v1364h63l930 -1258v1258h64v-1364h-64l-930 1260v-1260h-63zM453 1501q18 56 60.5 94.5t96.5 38.5t135 -45t121 -45q38 0 63.5 26t47.5 70l45 -16q-18 -56 -61 -94.5t-97 -38.5q-53 0 -134 45t-122 45q-67 0 -110 -96z" />
<glyph unicode="&#xd2;" horiz-adv-x="1486" d="M117 680q0 144 44 272t123.5 224t198 152t260.5 56q188 0 332.5 -96.5t219.5 -255.5t75 -352q0 -143 -44 -271t-123.5 -224t-198.5 -152t-261 -56t-260.5 56t-198 152t-123.5 223.5t-44 271.5zM184 680q0 -178 69.5 -324.5t198.5 -232.5t291 -86t291 86t199 232.5 t70 324.5t-70 325t-199 233.5t-291 86.5t-291 -86.5t-198.5 -233.5t-69.5 -325zM473 1720h94l201 -239h-76z" />
<glyph unicode="&#xd3;" horiz-adv-x="1486" d="M117 680q0 144 44 272t123.5 224t198 152t260.5 56q188 0 332.5 -96.5t219.5 -255.5t75 -352q0 -143 -44 -271t-123.5 -224t-198.5 -152t-261 -56t-260.5 56t-198 152t-123.5 223.5t-44 271.5zM184 680q0 -178 69.5 -324.5t198.5 -232.5t291 -86t291 86t199 232.5 t70 324.5t-70 325t-199 233.5t-291 86.5t-291 -86.5t-198.5 -233.5t-69.5 -325zM713 1481l198 239h97l-217 -239h-78z" />
<glyph unicode="&#xd4;" horiz-adv-x="1486" d="M117 680q0 144 44 272t123.5 224t198 152t260.5 56q188 0 332.5 -96.5t219.5 -255.5t75 -352q0 -143 -44 -271t-123.5 -224t-198.5 -152t-261 -56t-260.5 56t-198 152t-123.5 223.5t-44 271.5zM184 680q0 -178 69.5 -324.5t198.5 -232.5t291 -86t291 86t199 232.5 t70 324.5t-70 325t-199 233.5t-291 86.5t-291 -86.5t-198.5 -233.5t-69.5 -325zM498 1460l204 240h86l201 -240h-61l-185 209l-186 -209h-59z" />
<glyph unicode="&#xd5;" horiz-adv-x="1486" d="M117 680q0 144 44 272t123.5 224t198 152t260.5 56q188 0 332.5 -96.5t219.5 -255.5t75 -352q0 -143 -44 -271t-123.5 -224t-198.5 -152t-261 -56t-260.5 56t-198 152t-123.5 223.5t-44 271.5zM184 680q0 -178 69.5 -324.5t198.5 -232.5t291 -86t291 86t199 232.5 t70 324.5t-70 325t-199 233.5t-291 86.5t-291 -86.5t-198.5 -233.5t-69.5 -325zM459 1501q18 56 60.5 94.5t96.5 38.5t135 -45t121 -45q38 0 63.5 26t47.5 70l45 -16q-18 -56 -61 -94.5t-97 -38.5q-53 0 -134 45t-122 45q-67 0 -110 -96z" />
<glyph unicode="&#xd6;" horiz-adv-x="1486" d="M117 680q0 144 44 272t123.5 224t198 152t260.5 56q188 0 332.5 -96.5t219.5 -255.5t75 -352q0 -143 -44 -271t-123.5 -224t-198.5 -152t-261 -56t-260.5 56t-198 152t-123.5 223.5t-44 271.5zM184 680q0 -178 69.5 -324.5t198.5 -232.5t291 -86t291 86t199 232.5 t70 324.5t-70 325t-199 233.5t-291 86.5t-291 -86.5t-198.5 -233.5t-69.5 -325zM551 1487v192h84v-192h-84zM852 1487v192h84v-192h-84z" />
<glyph unicode="&#xd7;" horiz-adv-x="952" d="M106 119l322 319l-322 322l50 49l321 -322l322 322l47 -49l-322 -322l322 -319l-47 -49l-322 321l-321 -321z" />
<glyph unicode="&#xd8;" horiz-adv-x="1486" d="M117 10l162 183q-162 198 -162 487q0 144 44 272t123.5 224t198 152t260.5 56q263 0 433 -178l157 178l37 -32l-162 -183q78 -95 120 -221.5t42 -267.5q0 -143 -44 -271t-123.5 -224t-198.5 -152t-261 -56q-261 0 -432 179l-157 -179zM186 680q0 -253 140 -436l807 911 q-74 80 -174 125t-216 45q-162 0 -290.5 -86.5t-197.5 -233.5t-69 -325zM356 207q157 -170 387 -170q162 0 291 86t199 232.5t70 324.5q0 255 -140 438z" />
<glyph unicode="&#xd9;" horiz-adv-x="1400" d="M188 449v915h68v-926q0 -178 125 -289.5t319 -111.5t318.5 111t124.5 290v926h69v-915q0 -94 -33 -178t-95.5 -150t-161.5 -105t-222 -39t-222 39t-161.5 105.5t-95.5 150.5t-33 177zM432 1720h94l201 -239h-76z" />
<glyph unicode="&#xda;" horiz-adv-x="1400" d="M188 449v915h68v-926q0 -178 125 -289.5t319 -111.5t318.5 111t124.5 290v926h69v-915q0 -94 -33 -178t-95.5 -150t-161.5 -105t-222 -39t-222 39t-161.5 105.5t-95.5 150.5t-33 177zM647 1481l199 239h96l-217 -239h-78z" />
<glyph unicode="&#xdb;" horiz-adv-x="1400" d="M188 449v915h68v-926q0 -178 125 -289.5t319 -111.5t318.5 111t124.5 290v926h69v-915q0 -94 -33 -178t-95.5 -150t-161.5 -105t-222 -39t-222 39t-161.5 105.5t-95.5 150.5t-33 177zM455 1460l204 240h86l201 -240h-61l-185 209l-186 -209h-59z" />
<glyph unicode="&#xdc;" horiz-adv-x="1400" d="M188 449v915h68v-926q0 -178 125 -289.5t319 -111.5t318.5 111t124.5 290v926h69v-915q0 -94 -33 -178t-95.5 -150t-161.5 -105t-222 -39t-222 39t-161.5 105.5t-95.5 150.5t-33 177zM508 1487v192h84v-192h-84zM809 1487v192h84v-192h-84z" />
<glyph unicode="&#xdd;" horiz-adv-x="1212" d="M-6 1364h74l538 -737l537 737h76l-578 -793v-571h-70v571zM588 1481l198 239h97l-217 -239h-78z" />
<glyph unicode="&#xde;" horiz-adv-x="1253" d="M209 0v1364h67v-289h521q127 0 220 -54t137 -139t44 -188t-44 -187.5t-136.5 -138t-218.5 -53.5h-523v-315h-67zM276 379h539q133 0 224 86.5t91 228.5t-92 229t-225 87h-537v-631z" />
<glyph unicode="&#xdf;" horiz-adv-x="1234" d="M102 934v63h158v66q0 165 85.5 258.5t246.5 93.5q140 0 230.5 -77t90.5 -203q0 -61 -24 -112t-57.5 -85.5t-67.5 -65.5t-58 -66.5t-24 -72.5q0 -30 5 -48t25 -40t57.5 -43.5t104.5 -52.5q143 -66 204 -134.5t61 -170.5q0 -111 -87.5 -185.5t-232.5 -74.5q-170 0 -315 71 l22 58q148 -66 289 -66q122 0 189 52.5t67 144.5q0 81 -52 136t-188 116q-117 51 -167 101t-50 136q0 49 23.5 90t57.5 71.5t68 62.5t57.5 77.5t23.5 100.5q0 93 -69.5 155t-184.5 62q-124 0 -192 -67t-68 -193v-1092h-70v934h-158z" />
<glyph unicode="&#xe0;" horiz-adv-x="1005" d="M102 274q0 90 46 153.5t117 91.5t159 28h364v135q0 131 -72 200.5t-237 69.5q-160 0 -313 -30l-10 59q158 35 321 35q193 0 287 -84.5t94 -235.5v-696h-70v133q-118 -149 -348 -149q-65 0 -123.5 17t-107.5 50.5t-78 91t-29 131.5zM170 264q0 -101 77.5 -159t192.5 -58 q145 0 246.5 79t101.5 204v153h-364q-122 0 -188 -56t-66 -163zM221 1376h94l199 -239h-76z" />
<glyph unicode="&#xe1;" horiz-adv-x="1005" d="M102 274q0 90 46 153.5t117 91.5t159 28h364v135q0 131 -72 200.5t-237 69.5q-160 0 -313 -30l-10 59q158 35 321 35q193 0 287 -84.5t94 -235.5v-696h-70v133q-118 -149 -348 -149q-65 0 -123.5 17t-107.5 50.5t-78 91t-29 131.5zM170 264q0 -101 77.5 -159t192.5 -58 q145 0 246.5 79t101.5 204v153h-364q-122 0 -188 -56t-66 -163zM436 1137l199 239h94l-217 -239h-76z" />
<glyph unicode="&#xe2;" horiz-adv-x="1005" d="M102 274q0 90 46 153.5t117 91.5t159 28h364v135q0 131 -72 200.5t-237 69.5q-160 0 -313 -30l-10 59q158 35 321 35q193 0 287 -84.5t94 -235.5v-696h-70v133q-118 -149 -348 -149q-65 0 -123.5 17t-107.5 50.5t-78 91t-29 131.5zM170 264q0 -101 77.5 -159t192.5 -58 q145 0 246.5 79t101.5 204v153h-364q-122 0 -188 -56t-66 -163zM233 1137l205 239h86l201 -239h-61l-185 209l-186 -209h-60z" />
<glyph unicode="&#xe3;" horiz-adv-x="1005" d="M102 274q0 90 46 153.5t117 91.5t159 28h364v135q0 131 -72 200.5t-237 69.5q-160 0 -313 -30l-10 59q158 35 321 35q193 0 287 -84.5t94 -235.5v-696h-70v133q-118 -149 -348 -149q-65 0 -123.5 17t-107.5 50.5t-78 91t-29 131.5zM170 264q0 -101 77.5 -159t192.5 -58 q145 0 246.5 79t101.5 204v153h-364q-122 0 -188 -56t-66 -163zM190 1192q16 55 59.5 94t98.5 39q53 0 134 -45t122 -45q38 0 63.5 26t47.5 70l43 -16q-16 -55 -59.5 -94t-98.5 -39q-53 0 -134 45t-122 45q-38 0 -63.5 -26t-47.5 -70z" />
<glyph unicode="&#xe4;" horiz-adv-x="1005" d="M102 274q0 90 46 153.5t117 91.5t159 28h364v135q0 131 -72 200.5t-237 69.5q-160 0 -313 -30l-10 59q158 35 321 35q193 0 287 -84.5t94 -235.5v-696h-70v133q-118 -149 -348 -149q-65 0 -123.5 17t-107.5 50.5t-78 91t-29 131.5zM170 264q0 -101 77.5 -159t192.5 -58 q145 0 246.5 79t101.5 204v153h-364q-122 0 -188 -56t-66 -163zM287 1157v193h84v-193h-84zM588 1157v193h84v-193h-84z" />
<glyph unicode="&#xe5;" horiz-adv-x="1005" d="M102 274q0 90 46 153.5t117 91.5t159 28h364v135q0 131 -72 200.5t-237 69.5q-160 0 -313 -30l-10 59q158 35 321 35q193 0 287 -84.5t94 -235.5v-696h-70v133q-118 -149 -348 -149q-65 0 -123.5 17t-107.5 50.5t-78 91t-29 131.5zM170 264q0 -101 77.5 -159t192.5 -58 q145 0 246.5 79t101.5 204v153h-364q-122 0 -188 -56t-66 -163zM342 1262q0 54 38.5 92.5t92.5 38.5t91.5 -38.5t37.5 -92.5t-37.5 -91.5t-91.5 -37.5t-92.5 37.5t-38.5 91.5zM385 1262q0 -37 26 -65t62 -28t62 28t26 65t-26 64.5t-62 27.5t-62 -27.5t-26 -64.5z" />
<glyph unicode="&#xe6;" horiz-adv-x="1748" d="M102 274q0 135 84.5 204t219.5 69h382v135q0 130 -71.5 199t-237.5 69q-154 0 -313 -28l-12 59q158 35 323 35q162 0 255.5 -64t117.5 -178q56 112 153 177t226 65q103 0 185 -42.5t131.5 -115t75.5 -163t26 -191.5v-21h-789q7 -203 121.5 -319.5t304.5 -116.5 q159 0 305 43l15 -57q-155 -49 -320 -49q-155 0 -268.5 69t-171.5 191q-32 -119 -133.5 -189.5t-261.5 -70.5q-65 0 -125 17t-110.5 50.5t-81 91t-30.5 131.5zM172 264q0 -100 80.5 -158.5t196.5 -58.5q162 0 250.5 78.5t88.5 220.5v137h-380q-116 0 -176 -56t-60 -163z M858 547h719q-14 186 -102 294.5t-246 108.5q-161 0 -258 -111t-113 -292z" />
<glyph unicode="&#xe7;" horiz-adv-x="946" d="M98 500q0 227 132.5 371.5t361.5 144.5q132 0 248 -35l-15 -55q-114 28 -225 28q-207 0 -320.5 -124t-113.5 -330q0 -207 112.5 -331t321.5 -124q102 0 225 29l15 -56q-116 -34 -248 -34q-228 0 -361 144.5t-133 371.5zM428 -469l8 35q70 -21 152 -21q66 0 108.5 34.5 t42.5 101.5q0 68 -46.5 103.5t-117.5 35.5q-49 0 -90 -10l45 190h41l-32 -147q29 4 59 4q94 0 146.5 -49t52.5 -121q0 -82 -52 -135.5t-147 -53.5q-96 0 -170 33z" />
<glyph unicode="&#xe8;" horiz-adv-x="1060" d="M102 500q0 141 51 257t152.5 187.5t235.5 71.5q103 0 184.5 -42.5t130.5 -115t74.5 -162.5t25.5 -192v-23h-786q7 -203 122.5 -318.5t305.5 -115.5q146 0 303 43l17 -57q-155 -49 -320 -49q-227 0 -361.5 145t-134.5 371zM170 547h721q-14 186 -103 295.5t-247 109.5 q-161 0 -258 -112t-113 -293zM266 1376h94l199 -239h-76z" />
<glyph unicode="&#xe9;" horiz-adv-x="1060" d="M102 500q0 141 51 257t152.5 187.5t235.5 71.5q103 0 184.5 -42.5t130.5 -115t74.5 -162.5t25.5 -192v-23h-786q7 -203 122.5 -318.5t305.5 -115.5q146 0 303 43l17 -57q-155 -49 -320 -49q-227 0 -361.5 145t-134.5 371zM170 547h721q-14 186 -103 295.5t-247 109.5 q-161 0 -258 -112t-113 -293zM524 1137l199 239h94l-217 -239h-76z" />
<glyph unicode="&#xea;" horiz-adv-x="1060" d="M102 500q0 141 51 257t152.5 187.5t235.5 71.5q103 0 184.5 -42.5t130.5 -115t74.5 -162.5t25.5 -192v-23h-786q7 -203 122.5 -318.5t305.5 -115.5q146 0 303 43l17 -57q-155 -49 -320 -49q-227 0 -361.5 145t-134.5 371zM170 547h721q-14 186 -103 295.5t-247 109.5 q-161 0 -258 -112t-113 -293zM295 1137l205 239h86l200 -239h-61l-184 209l-187 -209h-59z" />
<glyph unicode="&#xeb;" horiz-adv-x="1060" d="M102 500q0 141 51 257t152.5 187.5t235.5 71.5q103 0 184.5 -42.5t130.5 -115t74.5 -162.5t25.5 -192v-23h-786q7 -203 122.5 -318.5t305.5 -115.5q146 0 303 43l17 -57q-155 -49 -320 -49q-227 0 -361.5 145t-134.5 371zM170 547h721q-14 186 -103 295.5t-247 109.5 q-161 0 -258 -112t-113 -293zM352 1157v193h84v-193h-84zM653 1157v193h84v-193h-84z" />
<glyph unicode="&#xec;" horiz-adv-x="423" d="M-49 1376h94l199 -239h-76zM178 0v997h68v-997h-68z" />
<glyph unicode="&#xed;" horiz-adv-x="423" d="M164 1137l198 239h95l-217 -239h-76zM178 0v997h68v-997h-68z" />
<glyph unicode="&#xee;" horiz-adv-x="423" d="M-35 1137l205 239h86l201 -239h-62l-184 209l-186 -209h-60zM178 0v997h68v-997h-68z" />
<glyph unicode="&#xef;" horiz-adv-x="423" d="M18 1157v193h84v-193h-84zM178 0v997h68v-997h-68zM319 1157v193h84v-193h-84z" />
<glyph unicode="&#xf0;" horiz-adv-x="1050" d="M106 500q0 78 15.5 151t49.5 139.5t83 116.5t122 79.5t161 29.5q109 0 201 -65.5t130 -170.5q-9 94 -47 194.5t-96 176.5l-98 -80l-35 43l100 80q-72 91 -174 170h82q73 -67 131 -137l94 78l37 -45l-96 -78q188 -243 188 -662q0 -150 -47.5 -270t-143.5 -193t-226 -73 q-88 0 -161 29.5t-122 79.5t-83 116.5t-49.5 139.5t-15.5 151zM174 500q0 -198 92 -325.5t262 -127.5q87 0 156.5 37.5t112.5 101.5t65.5 144.5t22.5 169.5t-22.5 169t-65.5 143t-112.5 100.5t-156.5 37.5q-170 0 -262 -126t-92 -324z" />
<glyph unicode="&#xf1;" horiz-adv-x="1118" d="M178 0v997h70v-221q49 106 149 173t221 67q158 0 245 -97t87 -253v-666h-67v662q0 131 -67 207.5t-206 76.5q-144 0 -253 -119t-109 -311v-516h-70zM289 1192q16 55 59 94t98 39q53 0 134 -45t122 -45q38 0 63.5 26t47.5 70l43 -16q-16 -55 -59.5 -94t-98.5 -39 q-53 0 -134 45t-122 45q-38 0 -62.5 -26t-47.5 -70z" />
<glyph unicode="&#xf2;" horiz-adv-x="1091" d="M106 500q0 104 29.5 197t84 164.5t139 113t188.5 41.5q138 0 239 -71.5t150 -187t49 -257.5t-49 -257.5t-150 -187t-239 -71.5q-104 0 -188.5 41.5t-139 113t-84 164.5t-29.5 197zM176 500q0 -202 99.5 -327.5t271.5 -125.5t271.5 125.5t99.5 327.5t-99.5 327t-271.5 125 t-271.5 -125t-99.5 -327zM274 1376h95l198 -239h-75z" />
<glyph unicode="&#xf3;" horiz-adv-x="1091" d="M106 500q0 104 29.5 197t84 164.5t139 113t188.5 41.5q138 0 239 -71.5t150 -187t49 -257.5t-49 -257.5t-150 -187t-239 -71.5q-104 0 -188.5 41.5t-139 113t-84 164.5t-29.5 197zM176 500q0 -202 99.5 -327.5t271.5 -125.5t271.5 125.5t99.5 327.5t-99.5 327t-271.5 125 t-271.5 -125t-99.5 -327zM510 1137l199 239h94l-217 -239h-76z" />
<glyph unicode="&#xf4;" horiz-adv-x="1091" d="M106 500q0 104 29.5 197t84 164.5t139 113t188.5 41.5q138 0 239 -71.5t150 -187t49 -257.5t-49 -257.5t-150 -187t-239 -71.5q-104 0 -188.5 41.5t-139 113t-84 164.5t-29.5 197zM176 500q0 -202 99.5 -327.5t271.5 -125.5t271.5 125.5t99.5 327.5t-99.5 327t-271.5 125 t-271.5 -125t-99.5 -327zM291 1137l205 239h86l200 -239h-61l-184 209l-187 -209h-59z" />
<glyph unicode="&#xf5;" horiz-adv-x="1091" d="M106 500q0 104 29.5 197t84 164.5t139 113t188.5 41.5q138 0 239 -71.5t150 -187t49 -257.5t-49 -257.5t-150 -187t-239 -71.5q-104 0 -188.5 41.5t-139 113t-84 164.5t-29.5 197zM176 500q0 -202 99.5 -327.5t271.5 -125.5t271.5 125.5t99.5 327.5t-99.5 327t-271.5 125 t-271.5 -125t-99.5 -327zM256 1192q16 55 59.5 94t98.5 39q53 0 134 -45t122 -45q38 0 62.5 26t47.5 70l43 -16q-16 -55 -59 -94t-98 -39q-53 0 -134 45t-122 45q-38 0 -63.5 -26t-47.5 -70z" />
<glyph unicode="&#xf6;" horiz-adv-x="1091" d="M106 500q0 104 29.5 197t84 164.5t139 113t188.5 41.5q138 0 239 -71.5t150 -187t49 -257.5t-49 -257.5t-150 -187t-239 -71.5q-104 0 -188.5 41.5t-139 113t-84 164.5t-29.5 197zM176 500q0 -202 99.5 -327.5t271.5 -125.5t271.5 125.5t99.5 327.5t-99.5 327t-271.5 125 t-271.5 -125t-99.5 -327zM346 1157v193h84v-193h-84zM647 1157v193h84v-193h-84z" />
<glyph unicode="&#xf7;" horiz-adv-x="1077" d="M117 362v58h844v-58h-844zM446 88q0 38 28.5 66t66.5 28t65 -28t27 -66t-27 -66t-65 -28t-66.5 28t-28.5 66zM446 694q0 38 28.5 66t66.5 28t65 -28t27 -66t-27 -66t-65 -28t-66.5 28t-28.5 66z" />
<glyph unicode="&#xf8;" horiz-adv-x="1091" d="M106 14l109 129q-109 142 -109 357q0 104 29.5 197t84 164.5t139 113t188.5 41.5q179 0 297 -121l104 125l37 -33l-108 -129q108 -141 108 -358q0 -142 -49 -257.5t-150 -187t-239 -71.5q-182 0 -301 122l-103 -122zM176 500q0 -184 82 -305l545 649q-98 106 -256 106 q-172 0 -271.5 -124.5t-99.5 -325.5zM289 156q98 -109 258 -109q172 0 271.5 125.5t99.5 327.5q0 188 -84 307z" />
<glyph unicode="&#xf9;" horiz-adv-x="1110" d="M160 332v665h67v-661q0 -131 68 -208t207 -77q144 0 253 119t109 311v516h68v-997h-68v221q-48 -105 -148 -171t-222 -66q-159 0 -246.5 96.5t-87.5 251.5zM266 1376h94l199 -239h-76z" />
<glyph unicode="&#xfa;" horiz-adv-x="1110" d="M160 332v665h67v-661q0 -131 68 -208t207 -77q144 0 253 119t109 311v516h68v-997h-68v221q-48 -105 -148 -171t-222 -66q-159 0 -246.5 96.5t-87.5 251.5zM504 1137l198 239h95l-217 -239h-76z" />
<glyph unicode="&#xfb;" horiz-adv-x="1110" d="M160 332v665h67v-661q0 -131 68 -208t207 -77q144 0 253 119t109 311v516h68v-997h-68v221q-48 -105 -148 -171t-222 -66q-159 0 -246.5 96.5t-87.5 251.5zM299 1137l205 239h86l201 -239h-62l-184 209l-187 -209h-59z" />
<glyph unicode="&#xfc;" horiz-adv-x="1110" d="M160 332v665h67v-661q0 -131 68 -208t207 -77q144 0 253 119t109 311v516h68v-997h-68v221q-48 -105 -148 -171t-222 -66q-159 0 -246.5 96.5t-87.5 251.5zM358 1157v193h84v-193h-84zM659 1157v193h84v-193h-84z" />
<glyph unicode="&#xfd;" horiz-adv-x="913" d="M8 997h72l369 -919l370 919h70l-549 -1351h-68l144 354zM428 1137l199 239h94l-217 -239h-76z" />
<glyph unicode="&#xfe;" horiz-adv-x="1134" d="M178 -352v1716h70v-580q51 106 145.5 169t202.5 63q88 0 161 -29.5t122.5 -79.5t83.5 -116.5t49.5 -139.5t15.5 -151t-15.5 -151t-49.5 -139.5t-83.5 -116.5t-122.5 -79.5t-161 -29.5q-109 0 -203 61.5t-145 167.5v-565h-70zM248 500q0 -71 13.5 -136.5t42.5 -123.5 t70.5 -100.5t100.5 -67.5t129 -25q170 0 262 127.5t92 325.5t-92 324t-262 126q-70 0 -129 -24.5t-100.5 -67t-70.5 -99.5t-42.5 -122.5t-13.5 -136.5z" />
<glyph unicode="&#xff;" horiz-adv-x="913" d="M8 997h72l369 -919l370 919h70l-549 -1351h-68l144 354zM264 1157v193h84v-193h-84zM565 1157v193h84v-193h-84z" />
<glyph unicode="&#x152;" horiz-adv-x="2043" d="M117 682q0 191 73 345t214.5 245.5t328.5 91.5h1163v-64h-813v-559h760v-63h-760v-615h813v-63h-1153q-142 0 -260.5 53t-198 144.5t-123.5 216.5t-44 268zM184 682q0 -178 70 -319.5t198 -222.5t291 -81h273v1246h-275q-163 0 -290.5 -81t-197 -222.5t-69.5 -319.5z" />
<glyph unicode="&#x153;" horiz-adv-x="1875" d="M106 500q0 105 29 197.5t83 164t138.5 113t188.5 41.5q151 0 255 -82.5t150 -220.5q48 137 153.5 220t252.5 83q103 0 185 -42.5t131.5 -115t75.5 -163t26 -191.5v-23h-789q7 -203 121.5 -318.5t304.5 -115.5q159 0 305 43l15 -57q-155 -49 -320 -49q-168 0 -287.5 82 t-171.5 223q-46 -139 -151 -222t-256 -83q-104 0 -188.5 41.5t-138.5 113t-83 164t-29 197.5zM174 500q0 -202 99.5 -327.5t271.5 -125.5t271 125.5t99 327.5t-99 326t-271 124t-271.5 -124.5t-99.5 -325.5zM985 547h719q-14 186 -102 294.5t-246 108.5q-161 0 -258 -111 t-113 -292z" />
<glyph unicode="&#x178;" horiz-adv-x="1212" d="M-6 1364h74l538 -737l537 737h76l-578 -793v-571h-70v571zM414 1487v192h84v-192h-84zM715 1487v192h84v-192h-84z" />
<glyph unicode="&#x2c6;" horiz-adv-x="704" d="M106 1137l205 239h86l201 -239h-61l-185 209l-186 -209h-60z" />
<glyph unicode="&#x2dc;" horiz-adv-x="780" d="M106 1192q16 55 59.5 94t98.5 39q53 0 134 -45t122 -45q38 0 63.5 26t47.5 70l43 -16q-16 -55 -59.5 -94t-98.5 -39q-53 0 -134 45t-122 45q-38 0 -62.5 -26t-47.5 -70z" />
<glyph unicode="&#x2000;" horiz-adv-x="860" />
<glyph unicode="&#x2001;" horiz-adv-x="1720" />
<glyph unicode="&#x2002;" horiz-adv-x="860" />
<glyph unicode="&#x2003;" horiz-adv-x="1720" />
<glyph unicode="&#x2004;" horiz-adv-x="573" />
<glyph unicode="&#x2005;" horiz-adv-x="430" />
<glyph unicode="&#x2006;" horiz-adv-x="286" />
<glyph unicode="&#x2007;" horiz-adv-x="286" />
<glyph unicode="&#x2008;" horiz-adv-x="215" />
<glyph unicode="&#x2009;" horiz-adv-x="344" />
<glyph unicode="&#x200a;" horiz-adv-x="95" />
<glyph unicode="&#x2010;" horiz-adv-x="671" d="M117 532v72h438v-72h-438z" />
<glyph unicode="&#x2011;" horiz-adv-x="671" d="M117 532v72h438v-72h-438z" />
<glyph unicode="&#x2012;" horiz-adv-x="671" d="M117 532v72h438v-72h-438z" />
<glyph unicode="&#x2013;" horiz-adv-x="1091" d="M117 532v72h858v-72h-858z" />
<glyph unicode="&#x2014;" horiz-adv-x="1464" d="M117 532v72h1231v-72h-1231z" />
<glyph unicode="&#x2018;" horiz-adv-x="438" d="M158 973v192l51 199h51l-51 -199h45v-192h-96z" />
<glyph unicode="&#x2019;" horiz-adv-x="438" d="M178 973l51 198h-47v193h99v-193l-52 -198h-51z" />
<glyph unicode="&#x201a;" horiz-adv-x="436" d="M158 -199l49 199h-45v193h96v-193l-51 -199h-49z" />
<glyph unicode="&#x201c;" horiz-adv-x="671" d="M178 973v192l51 199h50l-50 -199h45v-192h-96zM412 973v192l51 199h51l-51 -199h45v-192h-96z" />
<glyph unicode="&#x201d;" horiz-adv-x="671" d="M158 973l51 198h-47v193h98v-193l-51 -198h-51zM391 973l51 198h-47v193h99v-193l-52 -198h-51z" />
<glyph unicode="&#x201e;" horiz-adv-x="671" d="M158 -199l51 199h-47v193h98v-193l-51 -199h-51zM391 -199l51 199h-47v193h99v-193l-52 -199h-51z" />
<glyph unicode="&#x2022;" horiz-adv-x="647" d="M117 748q0 86 60 145t147 59q86 0 146 -59t60 -145q0 -87 -60 -148t-146 -61t-146.5 61.5t-60.5 147.5z" />
<glyph unicode="&#x2026;" horiz-adv-x="1361" d="M178 0v193h98v-193h-98zM633 0v193h98v-193h-98zM1085 0v193h99v-193h-99z" />
<glyph unicode="&#x202f;" horiz-adv-x="344" />
<glyph unicode="&#x2039;" horiz-adv-x="774" d="M76 492l475 491l35 -35l-441 -456l441 -457l-35 -35z" />
<glyph unicode="&#x203a;" horiz-adv-x="774" d="M188 35l441 457l-441 456l35 35l475 -491l-475 -492z" />
<glyph unicode="&#x205f;" horiz-adv-x="430" />
<glyph unicode="&#x20ac;" horiz-adv-x="1472" d="M66 514v55h219q-6 53 -6 111q0 69 8 121h-221v55h231q56 243 252 385.5t479 142.5q73 0 161.5 -12t145.5 -29l-10 -53q-143 35 -317 35q-144 0 -274 -52t-229.5 -160.5t-137.5 -256.5h426v-55h-437q-10 -62 -10 -121q0 -64 8 -111h439v-55h-428q27 -114 91.5 -206 t151.5 -150.5t189.5 -89.5t210.5 -31q180 0 315 37l12 -54q-142 -43 -307 -43q-284 0 -481.5 145.5t-251.5 391.5h-229z" />
<glyph unicode="&#x2122;" horiz-adv-x="1306" d="M76 1335v29h465v-29h-217v-594h-33v594h-215zM651 741v623h29l246 -504l245 504h29v-623h-29v559l-235 -487h-18l-238 487v-559h-29z" />
<glyph unicode="&#xe000;" horiz-adv-x="993" d="M0 0v993h993v-993h-993z" />
<glyph unicode="&#xfb01;" horiz-adv-x="1040" d="M86 934v63h162v138q0 280 244 280q64 0 135 -18l-13 -54q-76 13 -131 13q-88 0 -128 -53.5t-40 -167.5v-138h244v-63h-244v-934h-67v934h-162zM795 0v997h67v-997h-67zM795 1163v189h67v-189h-67z" />
<glyph unicode="&#xfb02;" horiz-adv-x="1200" d="M86 934v63h162v138q0 280 244 280q64 0 135 -18l-13 -54q-76 13 -131 13q-88 0 -128 -53.5t-40 -167.5v-138h244v-63h-244v-934h-67v934h-162zM793 244v1120h67v-1139q0 -90 40.5 -134t113.5 -44h90v-59h-82q-229 0 -229 256z" />
</font>
</defs>
</svg>
